American.Pickers.S11E10.Le.négociateur.FRENCH.480p.HDTV.x264 URL Raccourcie


AMERICAN PICKERS: La brocante made in USA


SYNOPSIS


Mike Wolfe et Frank Fritz, deux brocanteurs sympathiques, sillonnent le territoire américain à en quête d'antiquités et d'objets insolites à restaurer puis à revendre. De garages en granges, cette série les accompagne dans leurs recherches, qui les amènent à évoquer un pan de l'histoire de l'Amérique et à rencontrer des personnes originales.

http://www.imdb.com/title/tt1596786/episodes?season=4

INFORMATION UPLOAD

Qualité : HDTV
Format : MP4 480p/AAC
Langue : Français
Sous-titre : Aucun


↓↓↓ American.Pickers.S11E10.Le.négociateur.FRENCH.480p.HDTV.x264 ↓↓↓
 
Seeders 9 Leechers 0 Téléchargements 32
 
Télécharger Dire merci! Signaler
Voir la liste des membres qui vous remercient
↑↑↑ American.Pickers.S11E10.Le.négociateur.FRENCH.480p.HDTV.x264 ↑↑↑

Informations

Nom American.Pickers.S11E10.Le.négociateur.FRENCH.480p.HDTV.x264
Torrent American.Pickers.S11E10.Le.négociateur.FRENCH.480p.HDTV.x264.torrent
Catégorie Emission TV
Taille totale 574.48 MB
Info Hash d58c82e03627c21967f263a3e8af38a0e51e464b
Uploadé par Anonymous
Uploadé le 2017-03-20 11:04:33 (+00:00)
Visites 42
évaluation 5/5 (2 votes)

Liste des Fichiers

Path Size
American.Pickers.S11E10.Le.négociateur.FRENCH.480p.HDTV.x264.mp4 574.48 MB

Voir le NFO

General
Complete name                            : American.Pickers.S11E10.Le.negociateur.FRENCH.480p.HDTV.x264.mp4
Format                                   : MPEG-4
Format profile                           : Base Media
Codec ID                                 : isom (isom/iso2/avc1/mp41)
File size                                : 574 MiB
Duration                                 : 42mn 8s
Overall bit rate                         : 1 906 Kbps
Writing application                      : Lavf57.61.100

Video
ID                                       : 1
Format                                   : AVC
Format/Info                              : Advanced Video Codec
Format profile                           : [email protected]
Format settings, CABAC                   : Yes
Format settings, ReFrames                : 4 frames
Codec ID                                 : avc1
Codec ID/Info                            : Advanced Video Coding
Duration                                 : 42mn 8s
Bit rate                                 : 1 769 Kbps
Width                                    : 854 pixels
Height                                   : 480 pixels
Display aspect ratio                     : 16:9
Original display aspect ratio            : 16:9
Frame rate mode                          : Constant
Frame rate                               : 25.000 fps
Color space                              : YUV
Chroma subsampling                       : 4:2:0
Bit depth                                : 8 bits
Scan type                                : Progressive
Bits/(Pixel*Frame)                       : 0.173
Stream size                              : 533 MiB (93%)
Writing library                          : x264 core 148 r2744 b97ae06
Encoding settings                        : cabac=1 / ref=2 / deblock=1:0:0 / analyse=0x3:0x113 / me=hex / subme=6 / psy=1 / psy_rd=1.00:0.00 / mixed_ref=1 / me_range=16 / chroma_me=1 / trellis=1 / 8x8dct=1 / cqm=0 / deadzone=21,11 / fast_pskip=1 / chroma_qp_offset=-2 / threads=6 / lookahead_threads=1 / sliced_threads=0 / nr=0 / decimate=1 / interlaced=0 / bluray_compat=0 / constrained_intra=0 / bframes=3 / b_pyramid=2 / b_adapt=1 / b_bias=0 / direct=1 / weightb=1 / open_gop=0 / weightp=1 / keyint=250 / keyint_min=25 / scenecut=40 / intra_refresh=0 / rc_lookahead=30 / rc=crf / mbtree=1 / crf=18.0 / qcomp=0.60 / qpmin=0 / qpmax=69 / qpstep=4 / ip_ratio=1.40 / aq=1:1.00

Audio
ID                                       : 2
Format                                   : MPEG Audio
Format version                           : Version 1
Format profile                           : Layer 3
Mode                                     : Joint stereo
Mode extension                           : MS Stereo
Codec ID                                 : 6B
Duration                                 : 42mn 8s
Bit rate mode                            : Constant
Bit rate                                 : 128 Kbps
Channel(s)                               : 2 channels
Sampling rate                            : 44.1 KHz
Compression mode                         : Lossy
Stream size                              : 38.6 MiB (7%)
Default                                  : Yes
Alternate group                          : 1


Ajouter un commentaire

 
Loading...