Assassins.Creed.2016.MULTi.1080p.BluRay.x264-VENUE URL Raccourcie






Origine : États-Unis, France
Réalisateur : Justin Kurzel
Acteurs : Michael Fassbender, Marion Cotillard, Jeremy Irons, Brendan Gleeson, Charlotte Rampling
Genre : Action, Science fiction
Durée : 1h 56min
Date de sortie : 21 Décembre 2016
Année de production : 2016
Titre original : Assassin's Creed
Critiques Spectateurs : 3.1
Plus d'information sur imdb : http://www.imdb.com/title/tt2094766/
Plus d'information sur allocine : http://www.allocine.fr/film/fichefilm_gen_cfilm=198730.html
Bande annonce : Assassin's Creed Bande-annonce (2) VF, Assassin's Creed Bande-annonce VF



Grâce à une technologie révolutionnaire qui libère la mémoire génétique, Callum Lynch revit les aventures de son ancêtre Aguilar, dans l’Espagne du XVe siècle.  Alors que Callum découvre qu’il est issu d’une mystérieuse société secrète, les Assassins, il va assimiler les compétences dont il aura besoin pour affronter, dans le temps présent, une autre redoutable organisation : l’Ordre des Templiers.



Qualité : BluRay 1080p
Format : MKV
Langue : Québécois , Anglais
Sous-titre : Français forcé, Français
Codec vidéo : x264 à 8881 kbps
Codec audio : AC3 à 448 kbps , DTS à 1509 kbps


↓↓↓ Assassins.Creed.2016.MULTi.1080p.BluRay.x264-VENUE ↓↓↓
 
Seeders 371 Leechers 0 Téléchargements 942
 
Télécharger Dire merci! Signaler
Voir la liste des membres qui vous remercient
↑↑↑ Assassins.Creed.2016.MULTi.1080p.BluRay.x264-VENUE ↑↑↑

Informations

Nom Assassins.Creed.2016.MULTi.1080p.BluRay.x264-VENUE
Torrent Assassins.Creed.2016.MULTi.1080p.BluRay.x264-VENUE.torrent
Catégorie Film
Taille totale 8.75 GB
Info Hash 3cec33b5c2604a67a439b8d891f534fa070c0857
Uploadé par Anonymous
Uploadé le 2017-03-20 23:00:31 (+00:00)
Visites 1341
évaluation 4.7/5 (15 votes)

Liste des Fichiers

Path Size
Assassins.Creed.2016.MULTi.1080p.BluRay.x264-VENUE/Assassins.Creed.2016.MULTi.1080p.BluRay.x264-VENUE.mkv 8.75 GB
Assassins.Creed.2016.MULTi.1080p.BluRay.x264-VENUE/Assassins.Creed.2016.MULTi.1080p.BluRay.x264-VENUE.nfo 245 B

Voir le NFO

General
Unique ID                                : 252969319581846320785089961970768542407 (0xBE501E6704024222830BF72E7697FAC7)
Complete name                            : Assassins.Creed.2016.MULTi.1080p.BluRay.x264-VENUE.mkv
Format                                   : Matroska
Format version                           : Version 4 / Version 2
File size                                : 8.75 GiB
Duration                                 : 1h 55mn
Overall bit rate                         : 10.8 Mbps
Encoded date                             : UTC 2017-03-14 01:48:48
Writing application                      : mkvmerge v8.3.0 ('Over the Horizon') 64bit
Writing library                          : libebml v1.3.1 + libmatroska v1.4.2

Video
ID                                       : 1
Format                                   : AVC
Format/Info                              : Advanced Video Codec
Format profile                           : [email protected]
Format settings, CABAC                   : Yes
Format settings, ReFrames                : 5 frames
Codec ID                                 : V_MPEG4/ISO/AVC
Duration                                 : 1h 55mn
Bit rate                                 : 8 881 Kbps
Width                                    : 1 920 pixels
Height                                   : 808 pixels
Display aspect ratio                     : 2.40:1
Frame rate mode                          : Constant
Frame rate                               : 23.976 fps
Color space                              : YUV
Chroma subsampling                       : 4:2:0
Bit depth                                : 8 bits
Scan type                                : Progressive
Bits/(Pixel*Frame)                       : 0.239
Stream size                              : 6.99 GiB (80%)
Writing library                          : x264 core 148 r2744 b97ae06
Encoding settings                        : cabac=1 / ref=5 / deblock=1:0:0 / analyse=0x3:0x133 / me=umh / subme=7 / psy=1 / psy_rd=1.00:0.00 / mixed_ref=1 / me_range=16 / chroma_me=1 / trellis=1 / 8x8dct=1 / cqm=0 / deadzone=21,11 / fast_pskip=0 / chroma_qp_offset=-2 / threads=25 / lookahead_threads=4 / sliced_threads=0 / nr=0 / decimate=1 / interlaced=0 / bluray_compat=0 / constrained_intra=0 / bframes=3 / b_pyramid=2 / b_adapt=1 / b_bias=0 / direct=1 / weightb=1 / open_gop=0 / weightp=2 / keyint=250 / keyint_min=23 / scenecut=40 / intra_refresh=0 / rc_lookahead=40 / rc=2pass / mbtree=1 / bitrate=8881 / ratetol=1.0 / qcomp=0.60 / qpmin=0 / qpmax=69 / qpstep=4 / cplxblur=20.0 / qblur=0.5 / ip_ratio=1.40 / aq=1:1.00
Language                                 : English
Default                                  : Yes
Forced                                   : No

Audio #1
ID                                       : 2
Format                                   : AC-3
Format/Info                              : Audio Coding 3
Mode extension                           : CM (complete main)
Format settings, Endianness              : Big
Codec ID                                 : A_AC3
Duration                                 : 1h 55mn
Bit rate mode                            : Constant
Bit rate                                 : 448 Kbps
Channel(s)                               : 6 channels
Channel positions                        : Front: L C R, Side: L R, LFE
Sampling rate                            : 48.0 KHz
Frame rate                               : 31.250 fps (1536 spf)
Compression mode                         : Lossy
Stream size                              : 370 MiB (4%)
Language                                 : French
Default                                  : Yes
Forced                                   : Yes

Audio #2
ID                                       : 3
Format                                   : DTS
Format/Info                              : Digital Theater Systems
Mode                                     : 16
Format settings, Endianness              : Big
Codec ID                                 : A_DTS
Duration                                 : 1h 55mn
Bit rate mode                            : Constant
Bit rate                                 : 1 509 Kbps
Channel(s)                               : 6 channels
Channel positions                        : Front: L C R, Side: L R, LFE
Sampling rate                            : 48.0 KHz
Frame rate                               : 93.750 fps (512 spf)
Bit depth                                : 24 bits
Compression mode                         : Lossy
Stream size                              : 1.22 GiB (14%)
Language                                 : English
Default                                  : No
Forced                                   : No

Text #1
ID                                       : 4
Format                                   : UTF-8
Codec ID                                 : S_TEXT/UTF8
Codec ID/Info                            : UTF-8 Plain Text
Language                                 : French
Default                                  : No
Forced                                   : No

Text #2
ID                                       : 5
Format                                   : UTF-8
Codec ID                                 : S_TEXT/UTF8
Codec ID/Info                            : UTF-8 Plain Text
Title                                    : Forced
Language                                 : French
Default                                  : Yes
Forced                                   : Yes

Menu
Default                                  : Yes
Forced                                   : No
00:00:00.000                             : en:00:00:00.000
00:06:04.155                             : en:00:06:04.155
00:09:32.697                             : en:00:09:32.697
00:12:47.517                             : en:00:12:47.517
00:16:47.715                             : en:00:16:47.715
00:21:07.433                             : en:00:21:07.433
00:26:56.448                             : en:00:26:56.448
00:31:55.080                             : en:00:31:55.080
00:38:06.284                             : en:00:38:06.284
00:41:43.167                             : en:00:41:43.167
00:46:33.040                             : en:00:46:33.040
00:50:10.257                             : en:00:50:10.257
00:53:04.390                             : en:00:53:04.390
00:56:17.624                             : en:00:56:17.624
00:59:26.480                             : en:00:59:26.480
01:02:32.582                             : en:01:02:32.582
01:06:37.035                             : en:01:06:37.035
01:13:08.759                             : en:01:13:08.759
01:18:45.888                             : en:01:18:45.888
01:23:01.101                             : en:01:23:01.101
01:30:17.996                             : en:01:30:17.996
01:34:18.194                             : en:01:34:18.194
01:37:45.193                             : en:01:37:45.193
01:40:51.003                             : en:01:40:51.003


Ajouter un commentaire

galuk972 ↑ 235.25 GB ↓ 56.89 GB Ratio: 4,13

Merci pour l'UpLoad de top qualité ...

Poids affiché une fois dans la SeedBox étrange(800M° ... le transfert via ftp a du s'y reprendre à deux fois (?) mais finalement bien à bord au formats et poids indiqué ...


Galuk

vxsy ↑ 5.04 TB ↓ 3.38 TB Ratio: 1,49

tres bon film merci beaucoup

 
Loading...