Cosmos (1996) URL Raccourcie


Cosmos

de par Jennifer Alleyn, Manon Briand, Marie-Julie Dallaire, Arto Paragamian, André Turpin et Denis Villeneuve

100mn 1996

Version française sous-titrée anglais








C'est une mosaïque moderne qui se déroule dans la jungle citadine de Montréal avec pour personnage conducteur, un chauffeur de taxi philosophe d'origine grecque... Tourné dans un noir et blanc contrasté par 6 réalisateurs, Cosmos, demeure un essai quasi unique dans le cinéma d’auteur québécois. On peut y voir une sorte de répondant au Montréal, vu par…, autre film à sketches québécois réalisé en 1991 par six cinéastes chevronnés.

Film québécois collectif produit par Roger Frappier, il fut sélectionné au 50e Festival de Cannes et reçut le prix CICAE (cinéma d'art et d'essai) à la Quinzaine des réalisateurs.





Liste des sketches :

Jules et Fanny réalisé par André Turpin. Avec Marie-France Lambert (Fanny) ; Alexis Martin (Jules) - raconte les brèves retrouvailles d'une avocate et de son ancien amant.

Cosmos et agriculture réalisé par Arto Paragamian. Avec Marc Jeanty (Janvier) ; Igor Ovadis (Cosmos) - Cosmos et un ami ont pris en chasse deux hommes ayant volé une voiture taxi.

Le Technétium réalisé par Denis Villeneuve. Avec Audrey Benoît (Nadja, l'animatrice) ; David La Haye (Morille) - un cinéaste nerveux se rend à une entrevue avec l'animatrice branchée d'une émission de télé.

Aurore et Crépuscule réalisé par Jennifer Alleyn. Avec Gabriel Gascon (Crépuscule) ; Sarah-Jeanne Salvy (Aurore) - une jeune amoureuse déçue rencontre un vieil amoureux nostalgique.

Boost réalisé par Manon Briand. Avec Pascal Contamine (Joël) ; Marie-Hélène Montpetit (Yannie) - une jeune femme passe une journée avec un ami qui craint d'être séropositif.

L'Individu réalisé par Marie-Julie Dallaire. Avec : Sébastien Joannette (l'individu) - un tueur en série traque celle qui sera peut-être sa prochaine victime.

Codec vidéo : Xvid
Codec audio : AC3

Retrouvez mes autres uploads ici!

↓↓↓ Cosmos (1996) ↓↓↓
 
Seeders 6 Leechers 0 Téléchargements 24
 
Télécharger Dire merci! Signaler
Voir la liste des membres qui vous remercient
↑↑↑ Cosmos (1996) ↑↑↑

Informations

Nom Cosmos (1996)
Torrent Cosmos (J. Alleyn, M. Briand, M. Dallaire, A. Paragamian, A. Turpin, D. Villeneuve, 1996).avi.torrent
Catégorie Film
Taille totale 1.1 GB
Info Hash 7a7ffede5389fc253b59aad3ed9777751a656f41
Uploadé par qioell
Uploadé le 2017-03-20 08:40:45 (+00:00)
Visites 62
évaluation 5/5 (1 votes)

Liste des Fichiers

Path Size
Cosmos (J. Alleyn, M. Briand, M. Dallaire, A. Paragamian, A. Turpin, D. Villeneuve, 1996).avi 1.1 GB

Voir le NFO

General
Complete name                            : E:\Mes videos\Denis Villeneuve\Cosmos (J. Alleyn, M. Briand, M. Dallaire, A. Paragamian, A. Turpin, D. Villeneuve, 1996).avi
Format                                   : AVI
Format/Info                              : Audio Video Interleave
File size                                : 1.10 GiB
Duration                                 : 1 h 39 min
Overall bit rate                         : 1 571 kb/s
Writing application                      : VirtualDubMod 1.5.4.1 (build 2178/release)
Writing library                          : VirtualDubMod build 2178/release

Video
ID                                       : 0
Format                                   : MPEG-4 Visual
Format profile                           : Advanced [email protected]
Format settings, BVOP                    : 1
Format settings, QPel                    : No
Format settings, GMC                     : No warppoints
Format settings, Matrix                  : Custom
Codec ID                                 : XVID
Codec ID/Hint                            : XviD
Duration                                 : 1 h 39 min
Bit rate                                 : 1 372 kb/s
Width                                    : 560 pixels
Height                                   : 416 pixels
Display aspect ratio                     : 4:3
Frame rate                               : 23.976 (24000/1001) FPS
Color space                              : YUV
Chroma subsampling                       : 4:2:0
Bit depth                                : 8 bits
Scan type                                : Progressive
Compression mode                         : Lossy
Bits/(Pixel*Frame)                       : 0.246
Stream size                              : 980 MiB (87%)
Writing library                          : XviD 1.2.1 (UTC 2008-12-04)

Audio
ID                                       : 1
Format                                   : AC-3
Format/Info                              : Audio Coding 3
Mode extension                           : CM (complete main)
Format settings, Endianness              : Big
Codec ID                                 : 2000
Duration                                 : 1 h 39 min
Bit rate mode                            : Constant
Bit rate                                 : 192 kb/s
Channel(s)                               : 2 channels
Channel positions                        : Front: L R
Sampling rate                            : 48.0 kHz
Frame rate                               : 31.250 FPS (1536 spf)
Bit depth                                : 16 bits
Compression mode                         : Lossy
Stream size                              : 137 MiB (12%)
Alignment                                : Split accross interleaves
Interleave, duration                     : 96  ms (2.30 video frames)
Interleave, preload duration             : 96  ms
Language                                 : Français

Ajouter un commentaire

 
Loading...