DC Comics - Suicide squad [ATG 2016] 1080p URL Raccourcie


Suicide Squad





Réalisateur:David Ayer
Acteurs:Margot Robbie, Will Smith, Jared Leto, Cara Delevingne, Jai Courtney
Genre:Action
Origine:USA



Les pires méchants de l'univers DC Comics réunis dans un même film.
C'est tellement jouissif d'être un salopard ! Face à une menace aussi énigmatique qu'invincible, l'agent secret Amanda Waller réunit une armada de crapules de la pire espèce. Armés jusqu'aux dents par le gouvernement, ces Super-Méchants s'embarquent alors pour une mission-suicide. Jusqu'au moment où ils comprennent qu'ils ont été sacrifiés. Vont-ils accepter leur sort ou se rebeller ?



Source:Bluray
Résolution:1920x796
Format:MP4
Langue:Français
Vidéo:AVC x264
Audio:AAC
Taille:2.65 GB




↓↓↓ DC Comics - Suicide squad [ATG 2016] 1080p ↓↓↓
 
Seeders 32 Leechers 1 Téléchargements 83
 
Télécharger Dire merci! Signaler
Voir la liste des membres qui vous remercient
↑↑↑ DC Comics - Suicide squad [ATG 2016] 1080p ↑↑↑

Informations

Nom DC Comics - Suicide squad [ATG 2016] 1080p
Torrent DC Comics - Suicide squad [ATG 2016] 1080p.mp4.torrent
Catégorie Film
Taille totale 2.65 GB
Info Hash 18c431101bbd2afbb5f741b2a23e0cc7b9738ea1
Uploadé par KevinOwensShow
Uploadé le 2017-03-21 01:48:32 (+00:00)
Visites 140
évaluation 5/5 (4 votes)

Liste des Fichiers

Path Size
DC Comics - Suicide squad [ATG 2016] 1080p.mp4 2.65 GB

Voir le NFO

General
Complete name                            : /home/sws00978/torrents/DC Comics - Suicide squad [ATG 2016] 1080p.mp4
Format                                   : MPEG-4
Format profile                           : Base Media
Codec ID                                 : isom
File size                                : 2.65 GiB
Duration                                 : 2h 14mn
Overall bit rate mode                    : Variable
Overall bit rate                         : 2 822 Kbps
Encoded date                             : UTC 2017-02-07 06:05:40
Tagged date                              : UTC 2017-02-07 06:05:40

Video
ID                                       : 1
Format                                   : AVC
Format/Info                              : Advanced Video Codec
Format profile                           : [email protected]
Format settings, CABAC                   : Yes
Format settings, ReFrames                : 5 frames
Codec ID                                 : avc1
Codec ID/Info                            : Advanced Video Coding
Duration                                 : 2h 14mn
Bit rate                                 : 2 500 Kbps
Maximum bit rate                         : 16.3 Mbps
Width                                    : 1 920 pixels
Height                                   : 796 pixels
Display aspect ratio                     : 2.40:1
Frame rate mode                          : Constant
Frame rate                               : 23.976 fps
Color space                              : YUV
Chroma subsampling                       : 4:2:0
Bit depth                                : 8 bits
Scan type                                : Progressive
Bits/(Pixel*Frame)                       : 0.068
Stream size                              : 2.35 GiB (89%)
Writing library                          : x264 core 148 r2665 a01e339
Encoding settings                        : cabac=1 / ref=5 / deblock=1:0:0 / analyse=0x3:0x133 / me=umh / subme=9 / psy=1 / psy_rd=1.00:0.00 / mixed_ref=1 / me_range=16 / chroma_me=1 / trellis=2 / 8x8dct=1 / cqm=0 / deadzone=21,11 / fast_pskip=1 / chroma_qp_offset=-2 / threads=12 / lookahead_threads=1 / sliced_threads=0 / nr=0 / decimate=1 / interlaced=0 / bluray_compat=0 / constrained_intra=0 / bframes=3 / b_pyramid=2 / b_adapt=2 / b_bias=0 / direct=3 / weightb=1 / open_gop=0 / weightp=2 / keyint=250 / keyint_min=23 / scenecut=40 / intra_refresh=0 / rc_lookahead=60 / rc=2pass / mbtree=1 / bitrate=2500 / ratetol=1.0 / qcomp=0.60 / qpmin=0 / qpmax=69 / qpstep=4 / cplxblur=20.0 / qblur=0.5 / vbv_maxrate=50000 / vbv_bufsize=50000 / nal_hrd=none / filler=0 / ip_ratio=1.40 / aq=1:1.00
Encoded date                             : UTC 2017-02-07 06:05:40
Tagged date                              : UTC 2017-02-07 06:06:21

Audio
ID                                       : 2
Format                                   : AAC
Format/Info                              : Advanced Audio Codec
Format profile                           : LC
Codec ID                                 : 40
Duration                                 : 2h 14mn
Bit rate mode                            : Variable
Bit rate                                 : 317 Kbps
Maximum bit rate                         : 385 Kbps
Channel(s)                               : 6 channels
Channel positions                        : Front: L C R, Side: L R, LFE
Sampling rate                            : 48.0 KHz
Compression mode                         : Lossy
Stream size                              : 306 MiB (11%)
Encoded date                             : UTC 2017-02-07 01:51:41
Tagged date                              : UTC 2017-02-07 06:06:21

Ajouter un commentaire

megatel ↑ 1.82 TB ↓ 1.07 TB Ratio: 1,69

vu sympa je conseille pour fan de marvell

megatel ↑ 1.82 TB ↓ 1.07 TB Ratio: 1,69

vu sympa je conseille pour fan de marvell

utilit411 ↑ 1.01 TB ↓ 548.57 GB Ratio: 1,87

un flm bien fait
a regarder plus d une fois pour comprendre la subtilité des acteurs
toujours facile de juger u film s en y participer

 
Loading...