Elementary.S05E17.FASTSUB.VOSTFR.720p.HDTV.x264-ARK01 URL Raccourcie


Elementary S05E17 VOSTFR 720p





Origine de la série : Américaine
Réalisateur(s) : Robert Doherty
Acteurs : Jonny Lee Miller, Lucy Liu, Aidan Quinn
Genre : Drame, Policier
Note : 3.9
Fiche allociné : Elementary



Une version moderne des aventures de Sherlock Holmes dans le New York contemporain.Renvoyé de Londres en raison de son addiction à l'héroïne, Sherlock s'installe à Manhattan où son richissime paternel l'oblige à cohabiter avec son pire cauchemar : une personne sobre chargée de veiller sur lui. Ancienne chirurgienne promise à un bel avenir, Joan Watson a perdu un patient et sa licence trois ans plus tôt. Ce nouvel emploi est pour elle une nouvelle façon d'aider les autres, et surtout une pénitence qu'elle s'impose. Quand Sherlock devient consultant pour la police new-yorkaise, Watson n'a d'autre choix que suivre son irascible "client" lors de ses investigations. Très vite, ils réalisent l'un et l'autre les avantages que peut leur apporter un tel partenariat.



Qualité : HDTV 720p
Format : MKV
Langue :
Sous-titres :
Codec vidéo : x264
Codec audio : AC3 5.1

.:: Release ::.
Elementary.S05E17.FASTSUB.VOSTFR.720p.HDTV.x264-ARK01


Total du post : 729 Mo



↓↓↓ Elementary.S05E17.FASTSUB.VOSTFR.720p.HDTV.x264-ARK01 ↓↓↓
 
Seeders 309 Leechers 5 Téléchargements 787
 
Télécharger Dire merci! Signaler
Voir la liste des membres qui vous remercient
↑↑↑ Elementary.S05E17.FASTSUB.VOSTFR.720p.HDTV.x264-ARK01 ↑↑↑

Informations

Nom Elementary.S05E17.FASTSUB.VOSTFR.720p.HDTV.x264-ARK01
Torrent Elementary.S05E17.FASTSUB.VOSTFR.720p.HDTV.x264-ARK01.mkv.torrent
Catégorie Série TV
Taille totale 728.89 MB
Info Hash 6fc9e733c9421fb18a0e58293218b33809628542
Uploadé par Arkhos01
Uploadé le 2017-03-20 16:22:32 (+00:00)
Visites 909
évaluation 4.8/5 (16 votes)

Liste des Fichiers

Path Size
Elementary.S05E17.FASTSUB.VOSTFR.720p.HDTV.x264-ARK01.mkv 728.89 MB

Voir le NFO

General
Complete name                            : Elementary.S05E17.FASTSUB.VOSTFR.720p.HDTV.x264-ARK01.mkv
Format                                   : Matroska
Format version                           : Version 4 / Version 2
File size                                : 729 MiB
Duration                                 : 40mn 31s
Overall bit rate                         : 2 514 Kbps
Encoded date                             : UTC 2017-03-20 16:13:08
Writing application                      : mkvmerge v8.3.0 ('Over the Horizon') 64bit
Writing library                          : libebml v1.3.1 + libmatroska v1.4.2

Video
ID                                       : 1
Format                                   : AVC
Format/Info                              : Advanced Video Codec
Format profile                           : [email protected]
Format settings, CABAC                   : Yes
Format settings, ReFrames                : 9 frames
Codec ID                                 : V_MPEG4/ISO/AVC
Duration                                 : 40mn 31s
Bit rate                                 : 2 080 Kbps
Width                                    : 1 280 pixels
Height                                   : 720 pixels
Display aspect ratio                     : 16:9
Frame rate mode                          : Constant
Frame rate                               : 23.976 fps
Color space                              : YUV
Chroma subsampling                       : 4:2:0
Bit depth                                : 8 bits
Scan type                                : Progressive
Bits/(Pixel*Frame)                       : 0.094
Stream size                              : 603 MiB (83%)
Writing library                          : x264 core 148 r2762 90a61ec
Language                                 : English
Default                                  : Yes
Forced                                   : No
Color range                              : Limited
Matrix coefficients                      : BT.709

Audio
ID                                       : 2
Format                                   : AC-3
Format/Info                              : Audio Coding 3
Mode extension                           : CM (complete main)
Format settings, Endianness              : Big
Codec ID                                 : A_AC3
Duration                                 : 40mn 31s
Bit rate mode                            : Constant
Bit rate                                 : 384 Kbps
Channel(s)                               : 6 channels
Channel positions                        : Front: L C R, Side: L R, LFE
Sampling rate                            : 48.0 KHz
Compression mode                         : Lossy
Stream size                              : 111 MiB (15%)
Language                                 : English
Default                                  : Yes
Forced                                   : No

Text #1
ID                                       : 3
Format                                   : UTF-8
Codec ID                                 : S_TEXT/UTF8
Codec ID/Info                            : UTF-8 Plain Text
Language                                 : French
Default                                  : Yes
Forced                                   : No

Text #2
ID                                       : 4
Format                                   : UTF-8
Codec ID                                 : S_TEXT/UTF8
Codec ID/Info                            : UTF-8 Plain Text
Language                                 : English
Default                                  : No
Forced                                   : No

Sources : DIMENSION - Addic7ed

Ajouter un commentaire

 
Loading...