Ghost in the Shell - The New Movie (2015) VFI [1080p] BluRay x265-SMEA URL Raccourcie


Ghost in the Shell: The New Movie
VFI - HD Light 1080p - x265








Origine : Japon
Réalisateur : Kazuya Nomura, Kazuchika Kise
Acteurs : Maaya Sakamoto, Ikyuu Jyuku, Tarusuke Shingaki, Kazuya Nakai, Miyuki Sawashiro
Genre : Animation
Durée : 1h39
Année de production : 2015
Titre original : Ghost in the Shell: The New Movie
Plus d'information sur allocine : http://www.allocine.fr/film/fichefilm_gen_cfilm=234518.html



Une nouvelle version, moderne, du manga Ghost in the Shell.



Format : MKV (HEVC/H265 8 bits @2500kbps 2-pass HQ)
Audio : Français (VFI) : AC3 5.1 @448 kbps
Sous-titres : Français Forcés [Incrustés] (Hardcoded)
Résolution : 1920x1080
Format à l'écran : 16:9

Taille totale : 2.04 Go


Règles d'uploads des release x265-SMEA:
- HD Light 1080p en x265 [@2500kbps 2-pass HQ]
- Une seule piste audio en VFF ou VFI [AC3 5.1 @448 kbps]
- Si nécessaire Sous-titre Français Forcés [Incrustés](Hardcoded)
- Pas de "tag" à l'interieur du fichier PARTAGE LIBRE!



↓↓↓ Ghost in the Shell - The New Movie (2015) VFI [1080p] BluRay x265-SMEA ↓↓↓
 
Seeders 102 Leechers 1 Téléchargements 278
 
Télécharger Dire merci! Signaler
Voir la liste des membres qui vous remercient
↑↑↑ Ghost in the Shell - The New Movie (2015) VFI [1080p] BluRay x265-SMEA ↑↑↑

Informations

Nom Ghost in the Shell - The New Movie (2015) VFI [1080p] BluRay x265-SMEA
Torrent Ghost in the Shell - The New Movie (2015) VFI [1080p] BluRay x265-SMEA.mkv.torrent
Catégorie Animation
Taille totale 2.05 GB
Info Hash caeb8317434d59f6442b3f76b840f83f1a3e48d2
Uploadé par Anonymous
Uploadé le 2017-03-20 21:06:13 (+00:00)
Visites 391
évaluation 4.8/5 (16 votes)

Liste des Fichiers

Path Size
Ghost in the Shell - The New Movie (2015) VFI [1080p] BluRay x265-SMEA.mkv 2.05 GB

Voir le NFO

 ■General



Complete name               : Ghost in the Shell - The New Movie (2015) VFI [1080p] BluRay x265-SMEA.mkv

Format                      : Matroska

Format version              : Version 4 / Version 2

File size                   : 2.05 GiB

Duration                    : 1 h 39 min

Overall bit rate            : 2 950 kb/s

Movie name                  : Ghost in the Shell - The New Movie (2015)

Encoded date                : UTC 2017-03-19 21:42:52

Writing application         : mkvmerge v9.5.0 ('Quiet Fire') 64bit

Writing library             : libebml v1.3.4 + libmatroska v1.4.5



Video

ID                          : 1

Format                      : HEVC

Format/Info                 : High Efficiency Video Coding

Format profile              : Main@L4@Main

Codec ID                    : V_MPEGH/ISO/HEVC

Duration                    : 1 h 39 min

Bit rate                    : 2 500 kb/s

Width                       : 1 920 pixels

Height                      : 1 080 pixels

Display aspect ratio        : 16:9

Frame rate mode             : Constant

Frame rate                  : 23.976 (24000/1001) FPS

Color space                 : YUV

Chroma subsampling          : 4:2:0

Bit depth                   : 8 bits

Bits/(Pixel*Frame)          : 0.050

Stream size                 : 1.74 GiB (85%)

Title                       : Ghost in the Shell - The New Movie (2015)

Writing library             : x265 2.1:[Windows][GCC 5.4.0][64 bit] 8bit

Encoding settings           : wpp / ctu=64 / min-cu-size=8 / max-tu-size=32 / tu-intra-depth=1 / tu-inter-depth=1 / me=1 / subme=2 / merange=57 / no-rect / no-amp / max-merge=2 / temporal-mvp / no-early-skip / rskip / rdpenalty=0 / no-tskip / no-tskip-fast / strong-intra-smoothing / no-lossless / no-cu-lossless / no-constrained-intra / fast-intra / open-gop / no-temporal-layers / interlace=0 / keyint=240 / min-keyint=24 / scenecut=40 / rc-lookahead=15 / lookahead-slices=6 / bframes=4 / bframe-bias=0 / b-adapt=0 / ref=3 / limit-refs=3 / no-limit-modes / weightp / no-weightb / aq-mode=1 / qg-size=32 / aq-strength=1.00 / cbqpoffs=0 / crqpoffs=0 / rd=2 / psy-rd=2.00 / rdoq-level=0 / psy-rdoq=0.00 / log2-max-poc-lsb=8 / no-rd-refine / signhide / deblock=0:0 / sao / no-sao-non-deblock / b-pyramid / cutree / no-intra-refresh / rc=2 / pass / bitrate=2500 / qcomp=0.60 / qpmin=0 / qpmax=69 / qpstep=4 / cplxblur=20.0 / qblur=0.5 / ipratio=1.40 / pbratio=1.30

Default                     : Yes

Forced                      : No

Color range                 : Limited

Color primaries             : BT.709

Transfer characteristics    : BT.709

Matrix coefficients         : BT.709



Audio

ID                          : 2

Format                      : AC-3

Format/Info                 : Audio Coding 3

Mode extension              : CM (complete main)

Format settings, Endianness : Big

Codec ID                    : A_AC3

Duration                    : 1 h 39 min

Bit rate mode               : Constant

Bit rate                    : 448 kb/s

Channel(s)                  : 6 channels

Channel positions           : Front: L C R, Side: L R, LFE

Sampling rate               : 48.0 kHz

Frame rate                  : 31.250 FPS (1536 spf)

Bit depth                   : 16 bits

Compression mode            : Lossy

Delay relative to video     : 995 ms

Stream size                 : 319 MiB (15%)

Title                       : Franτais VFF AC3 5.1 @448kbps

Language                    : French

Default                     : Yes

Forced                      : No



Subtitle

Language                    : FR Forced (Hardcoded)



Menu

00:00:00.000                : :AVANT-TITRE

00:19:03.309                : :PART A

00:38:24.385                : :PART B

00:59:32.360                : :PART C

01:20:39.418                : :PART D

01:33:39.364                : :ENDING



Ajouter un commentaire

crysistof ↑ 9.83 TB ↓ 3.31 TB Ratio: 2,97

je comprends pas , ça down vraiment lentement depuis hier sur ce UP !! bizarre

guignol9333 ↑ 11.17 TB ↓ 1.8 TB Ratio: 6,20

merci pour le partage.
le h265 est un bon codec, arrêtez de pleurer.
la plupart du temps il y a une autre version en h264 ou un moyen facile de lire le h265 sur la télé... mais pour ça il faut vous bouger les fesses.
sans rire il y en a encore qui regrettent le MPEG? ou alors c'est du troll

Homeboy972 ↑ 899.5 GB ↓ 543.56 GB Ratio: 1,65

Merci à voir avant ou après la saga ghost in the shell Arise ???? merci d'avance

Laurentrofl

Lol j'ai un lecteur multimedia chinois acheté 30 euros sur Amazon qui lit le H265 sans soucis... Stop whine. Et merci à l'uploader.

1erordre ↑ 224.81 GB ↓ 217.75 GB Ratio: 1,03

klark411: ma télé Edenwood d electro depot le lit nativement .... c'est donc ton commentaire qui est sans intérêt :-x

DesperadosDa ↑ 12.41 TB ↓ 5.81 TB Ratio: 2,13

Sinon, pour s'affranchir des format des vidéos, vous pouvez installer un Plex Server sur votre PC sur le réseau local (ou sur un serveur dans le cloud).
Ensuite, si vous avez une SmartTV, vous avez juste à diffuser la vidéo sur votre TV.
Sinon, investissez dans un ChromeCast (40€ et diffuser les vidéos sur votre TV.

Plus d'infos sur Gogole, sinon en MP

oOWeaponXOo ↑ 2.25 TB ↓ 1.68 TB Ratio: 1,34

Si si il existe aujourd'hui des lecteur multimédia compatible H265, genre Popcorn Hour ou Zappiti.
Personnellement je n'ai pas encore investi dans un matériel compatible, mais j'y pense.
Au "pire" y'a le logiciel Handbrake pour convertir au format voulu, il est vrai qu'il faut être adepte du DIY (Fait le toi même).

klark411


Kler, ce codec ne peut se lire que sur PC, aucune plateforme multimédia (95% des gens) ne peut le lire...me gave aussi.

Pas glop

ALBANSERRE

Encore du H265, inregardable avec ma passerelle multimédia WDTV Live sur la TV, donc Rip sans intérêt

 
Loading...