Homeland.S06E09.VOASTA.1080p.WEBRip.X264-DEFLATE URL Raccourcie



Homeland.S06E09.VOASTA.1080p.WEBRip.X264-DEFLATE









Carrie est retournée aux États-Unis, où elle travaille désormais dans un cabinet d'avocats spécialisé dans les cas abusifs contre les citoyens américains musulmans. Elle s'occupe également de Quinn, encore en rééducation. Elizabeth Keane se prépare à prendre le poste de Présidente, affichant des idées pacifistes et anti-militaristes qui inquiètent Saul et Dar Adal.





Origine : USA
Réalisation : Gideon Raff, Howard Gordon (2011)
Durée : 0h54min
Acteur(s) : Claire Danes, Mandy Patinkin, Rupert Friend, F. Murray Abraham, Sebastian Koch
Genre : Thriller, Espionnage
Date de sortie : Fev 2017
Distributeur : -
Titre original : Homeland



Qualité : 1080p WEB-DL
Format : MKV
Langue : Anglais
Sous titres: Anglais
Codec vidéo : x264 @ 9 Mbits
Codec audio : AC3 5.1 @ 640 Kbps (VO)


Taille: 3.47 Go









↓↓↓ Homeland.S06E09.VOASTA.1080p.WEBRip.X264-DEFLATE ↓↓↓
 
Seeders 48 Leechers 1 Téléchargements 153
 
Télécharger Dire merci! Signaler
Voir la liste des membres qui vous remercient
↑↑↑ Homeland.S06E09.VOASTA.1080p.WEBRip.X264-DEFLATE ↑↑↑

Informations

Nom Homeland.S06E09.VOASTA.1080p.WEBRip.X264-DEFLATE
Torrent Homeland.S06E09.VOASTA.1080p.WEBRip.X264-DEFLATE.mkv.torrent
Catégorie Série TV
Taille totale 3.47 GB
Info Hash 0fb55938e83185ca191f2d03be92413a9b586ed1
Uploadé par ch0pin
Uploadé le 2017-03-20 07:18:59 (+00:00)
Visites 217
évaluation 5/5 (4 votes)

Liste des Fichiers

Path Size
Homeland.S06E09.VOASTA.1080p.WEBRip.X264-DEFLATE.mkv 3.47 GB

Voir le NFO

General
Complete name                            : Homeland.S06E09.VOASTA.1080p.WEBRip.X264-DEFLATE
Format                                   : Matroska
Format version                           : Version 4 / Version 2
File size                                : 3.47 GiB
Duration                                 : 48mn 3s
Overall bit rate                         : 10.3 Mbps
Encoded date                             : UTC 2017-03-20 00:06:09
Writing application                      : mkvmerge v9.3.1 ('Mask Machine') 64bit
Writing library                          : libebml v1.3.4 + libmatroska v1.4.5

Video
ID                                       : 1
Format                                   : AVC
Format/Info                              : Advanced Video Codec
Format profile                           : [email protected]
Format settings, CABAC                   : Yes
Format settings, ReFrames                : 4 frames
Codec ID                                 : V_MPEG4/ISO/AVC
Duration                                 : 48mn 3s
Bit rate                                 : 9 476 Kbps
Width                                    : 1 920 pixels
Height                                   : 1 080 pixels
Display aspect ratio                     : 16:9
Frame rate                               : 23.976 fps
Color space                              : YUV
Chroma subsampling                       : 4:2:0
Bit depth                                : 8 bits
Scan type                                : Progressive
Bits/(Pixel*Frame)                       : 0.191
Stream size                              : 3.18 GiB (92%)
Writing library                          : x264 core 148 r2762+10 5d7902f / tmod 5d7902f X86_64
Encoding settings                        : cabac=1 / ref=4 / deblock=1:-3:-3 / analyse=0x3:0x133 / me=umh / subme=11 / psy=1 / fade_compensate=0.00 / psy_rd=1.05:0.15 / mixed_ref=1 / me_range=48 / chroma_me=1 / trellis=2 / 8x8dct=1 / cqm=0 / deadzone=6,6 / fast_pskip=0 / chroma_qp_offset=-3 / threads=22 / lookahead_threads=5 / sliced_threads=0 / nr=0 / decimate=0 / interlaced=0 / bluray_compat=0 / constrained_intra=0 / fgo=0 / bframes=10 / b_pyramid=2 / b_adapt=2 / b_bias=0 / direct=3 / weightb=1 / open_gop=0 / weightp=2 / keyint=250 / keyint_min=23 / scenecut=40 / intra_refresh=0 / rc=crf / mbtree=0 / crf=17.0000 / qcomp=0.70 / qpmin=0:0:0 / qpmax=69:69:69 / qpstep=4 / ip_ratio=1.10 / pb_ratio=1.10 / aq=3:0.70 / aq-sensitivity=10.00 / aq-factor=1.00:1.00:1.00 / aq2=0 / aq3=0
Language                                 : English
Default                                  : Yes
Forced                                   : No

Audio
ID                                       : 2
Format                                   : E-AC-3
Format/Info                              : Audio Coding 3
Format settings, Endianness              : Big
Codec ID                                 : A_EAC3
Duration                                 : 48mn 3s
Bit rate mode                            : Constant
Bit rate                                 : 640 Kbps
Channel(s)                               : 6 channels
Channel positions                        : Front: L C R, Side: L R, LFE
Sampling rate                            : 48.0 KHz
Compression mode                         : Lossy
Stream size                              : 220 MiB (6%)
Language                                 : English
Default                                  : Yes
Forced                                   : No

Text #1
ID                                       : 3
Format                                   : UTF-8
Codec ID                                 : S_TEXT/UTF8
Codec ID/Info                            : UTF-8 Plain Text
Title                                    : English
Language                                 : English
Default                                  : No
Forced                                   : No

Text #2
ID                                       : 4
Format                                   : UTF-8
Codec ID                                 : S_TEXT/UTF8
Codec ID/Info                            : UTF-8 Plain Text
Title                                    : English (SDH)
Language                                 : English
Default                                  : No
Forced                                   : No

Ajouter un commentaire

ch0pin ↑ 11.45 TB ↓ 23.12 GB Ratio: 507,06

@globalkarl Tiens, un champion du monde! 7 ans de présence sur le site, 1 seul commentaire, et en plus erroné. Je confirme, il s'agit bien de l'épisode 9, celui ou Carrie est en entretien avec le psy
Alors que le E08, c'est celui qui commence avec Brett O'Keefe

De rien

globalkarl ↑ 1.2 TB ↓ 963.98 GB Ratio: 1,27

c est le E08 pas le E09

 
Loading...