Homeland.S06E09.VOASTA.PROPER.720p.HDTV.x264-ch0pin URL Raccourcie





Homeland.S06E09.VOASTA.720p.HDTV.x264-ch0pin








Carrie est retournée aux États-Unis, où elle travaille désormais dans un cabinet d'avocats spécialisé dans les cas abusifs contre les citoyens américains musulmans. Elle s'occupe également de Quinn, encore en rééducation. Elizabeth Keane se prépare à prendre le poste de Présidente, affichant des idées pacifistes et anti-militaristes qui inquiètent Saul et Dar Adal.





Origine : USA
Réalisation : Gideon Raff, Howard Gordon (2011)
Durée : 0h47min
Acteur(s) : Claire Danes, Mandy Patinkin, Rupert Friend, F. Murray Abraham, Sebastian Koch
Genre : Thriller, Espionnage
Date de sortie : Fev 2017
Distributeur : -
Titre original : Homeland



Qualité : 720p HDTV
Format : MKV
Langue : Anglais
Sous titres: Anglais
Codec vidéo : x264 @ 1.9 Mbits
Codec audio : AC3 5.1 @ 384 Kbps (VO)


Taille: 773 Mo









↓↓↓ Homeland.S06E09.VOASTA.PROPER.720p.HDTV.x264-ch0pin ↓↓↓
 
Seeders 168 Leechers 0 Téléchargements 713
 
Télécharger Dire merci! Signaler
Voir la liste des membres qui vous remercient
↑↑↑ Homeland.S06E09.VOASTA.PROPER.720p.HDTV.x264-ch0pin ↑↑↑

Informations

Nom Homeland.S06E09.VOASTA.PROPER.720p.HDTV.x264-ch0pin
Torrent Homeland.S06E09.VOASTA.PROPER.720p.HDTV.x264-ch0pin.mkv.torrent
Catégorie Série TV
Taille totale 777.87 MB
Info Hash c76598313d33d86f768abeca9d54097fd7444d93
Uploadé par ch0pin
Uploadé le 2017-03-20 07:17:59 (+00:00)
Visites 865
évaluation 5/5 (18 votes)

Liste des Fichiers

Path Size
Homeland.S06E09.VOASTA.PROPER.720p.HDTV.x264-ch0pin.mkv 777.87 MB

Voir le NFO

General
Complete name                    : Homeland.S06E09.VOASTA.PROPER.720p.HDTV.x264-ch0pin
Format                           : Matroska
File size                        : 778 MiB
Duration                         : 47mn 21s
Overall bit rate                 : 2 297 Kbps
Encoded date                     : UTC 2017-03-20 07:02:43
Writing application              : mkvmerge v7.7.0 ('Six Voices') 64bit built on Feb 28 2015 23:39:33
Writing library                  : libebml v1.3.1 + libmatroska v1.4.2

Video
ID                               : 1
Format                           : AVC
Format/Info                      : Advanced Video Codec
Format profile                   : [email protected]
Format settings, CABAC           : Yes
Format settings, ReFrames        : 5 frames
Codec ID                         : V_MPEG4/ISO/AVC
Duration                         : 47mn 21s
Bit rate                         : 1 867 Kbps
Width                            : 1 280 pixels
Height                           : 718 pixels
Display aspect ratio             : 16:9
Frame rate                       : 23.976 fps
Color space                      : YUV
Chroma subsampling               : 4:2:0
Bit depth                        : 8 bits
Scan type                        : Progressive
Bits/(Pixel*Frame)               : 0.085
Stream size                      : 632 MiB (81%)
Writing library                  : x264 core 148 r2744 b97ae06
Encoding settings                : cabac=1 / ref=5 / deblock=1:0:0 / analyse=0x3:0x113 / me=hex / subme=8 / psy=1 / psy_rd=1.00:0.00 / mixed_ref=1 / me_range=16 / chroma_me=1 / trellis=2 / 8x8dct=1 / cqm=0 / deadzone=21,11 / fast_pskip=1 / chroma_qp_offset=-2 / threads=18 / lookahead_threads=3 / sliced_threads=0 / nr=0 / decimate=1 / interlaced=0 / bluray_compat=0 / constrained_intra=0 / bframes=3 / b_pyramid=2 / b_adapt=1 / b_bias=0 / direct=3 / weightb=1 / open_gop=0 / weightp=2 / keyint=250 / keyint_min=23 / scenecut=40 / intra_refresh=0 / rc_lookahead=50 / rc=crf / mbtree=1 / crf=18.0 / qcomp=0.60 / qpmin=0 / qpmax=69 / qpstep=4 / ip_ratio=1.40 / aq=1:1.00
Matrix coefficients              : BT.709-5, BT.1361, IEC 61966-2-4 709, SMPTE RP177

Audio
ID                               : 2
Format                           : AC-3
Format/Info                      : Audio Coding 3
Mode extension                   : CM (complete main)
Codec ID                         : A_AC3
Duration                         : 47mn 21s
Bit rate mode                    : Constant
Bit rate                         : 384 Kbps
Channel(s)                       : 6 channels
Channel positions                : Front: L C R, Side: L R, LFE
Sampling rate                    : 48.0 KHz
Bit depth                        : 16 bits
Compression mode                 : Lossy
Stream size                      : 130 MiB (17%)

Text
ID                               : 3
Format                           : UTF-8
Codec ID                         : S_TEXT/UTF8
Codec ID/Info                    : UTF-8 Plain Text
Language                         : English

Source: Killers / Addic7ed

Ajouter un commentaire

branquignols ↑ 374.82 GB ↓ 367.66 GB Ratio: 1,01

Génial comme toujours !

qdbp ↑ 3.17 TB ↓ 1.1 TB Ratio: 2,88

Gégé, nickel, rien à dire, beau boulot, je suis fan

ch0pin ↑ 11.42 TB ↓ 18.04 GB Ratio: 648,31

@elixir44 @St4n

NFO corrigé, merci!

branquignols ↑ 374.82 GB ↓ 367.66 GB Ratio: 1,01

Super merci pour le partage !

branquignols ↑ 374.82 GB ↓ 367.66 GB Ratio: 1,01

Super merci pour le partage !

elixir44 ↑ 3.49 TB ↓ 1.46 TB Ratio: 2,39

Erreur fichier NFO (language : french)

"Ne jamais attribuer à la malveillance ce que la stupidité suffit à expliquer." Rasoir d'Hanlon.

pandasblow ↑ 101.97 GB ↓ 76.98 GB Ratio: 1,32

Super merci pour le partage

St4n ↑ 18.31 TB ↓ 6.38 TB Ratio: 2,87

Effectivement...
"Text
ID : 3
Format : UTF-8
Codec ID : S_TEXT/UTF8
Codec ID/Info : UTF-8 Plain Text
Language : French"

Merci du partage

vicomte31 ↑ 1.04 TB ↓ 816.76 GB Ratio: 1,30

c'est l'avant dernière ligne du NFO qui m'a fait douter.
Merci pour ton éclaircissement ch0pin.

ch0pin ↑ 11.42 TB ↓ 18.04 GB Ratio: 648,31

@vicomte31 Euh... les sous-titres sont en anglais ou en français?

Euh...Des fois je me demande bien à quoi ça sert qu'on fasse des prez ^^ Avec en plus des petits drapeaux

Merci hein. de rien

vicomte31 ↑ 1.04 TB ↓ 816.76 GB Ratio: 1,30

Euh... les sous-titres sont en anglais ou en français?

chiara2013 ↑ 300.63 GB ↓ 109.68 GB Ratio: 2,74

merci pour ce partage

sspiff ↑ 13.81 GB ↓ 3.56 GB Ratio: 3,88

Top, merci pour les sous-titres nettoyés !

 
Loading...