IRIS 2016 TrueFrench BluRay 1080p x265 HEVC 10bit NBRQ [email protected] URL Raccourcie


Iris






Origine : France
Réalisateur : Jalil Lespert
Acteurs : Romain Duris, Charlotte Le Bon, Jalil Lespert, Camille Cottin, Sophie Verbeeck, Adel Bencherif
Genre : Thriller
Durée : 1h 39min
Date de sortie : 16 Novembre 2016
Titre original : Iris
Critiques Spectateurs : 3.0 (TheMovieDB.org)
Plus d'information sur themoviedb : http://www.themoviedb.org/movie/395763

Des Critiques de Spectateurs par ici






Iris, la femme d’Antoine Doriot, un riche banquier, disparaît en plein Paris. Max, un jeune mécanicien endetté, pourrait bien être lié à son enlèvement. Mais les enquêteurs sont encore loin d’imaginer la vérité sur l’affaire qui se déroule sous leurs yeux.






Attention : Encodage HEVC 10bit CRF 15 : Qualité d'image Exceptionelle

Qualité : Bluray 1080p
Format : MKV
Langue : True French
Sous-titre : True French
Codec vidéo : HEVC/H265 10 bits à 9243kbps
Codec audio : DTS à 1509kbps


Cet Upload est basé sur le Bluray Remux de 4FR,
Il offre une très bonne qualité tout en étant moins lourd,
Il est encodé en H265, CRF 15 préservant tous les détails.

Toutes mes releases ici.
Elles offrent toutes une très bonne qualité que je qualifie de NBRQ (Near BluRay Quality).
Les videos sont encodées en HEVC/H265 CRF 15 ou 16.
Un prétraitement de débruitage (denoising) est parfois appliqué pour baisser la taille de la release.
Pistes audio français et VO d'origine (sans reencodage).
Sous-titres français et anglais si disponibles .





Découpage : Aucun
Tailles des fichiers : 1 x 7566 Mo
Taille totale : 7566 Mo



↓↓↓ IRIS 2016 TrueFrench BluRay 1080p x265 HEVC 10bit NBRQ [email protected] ↓↓↓
 
Seeders 76 Leechers 0 Téléchargements 184
 
Télécharger Dire merci! Signaler
Voir la liste des membres qui vous remercient
↑↑↑ IRIS 2016 TrueFrench BluRay 1080p x265 HEVC 10bit NBRQ [email protected] ↑↑↑

Informations

Nom IRIS 2016 TrueFrench BluRay 1080p x265 HEVC 10bit NBRQ [email protected]
Torrent [email protected]v.torrent
Catégorie Film
Taille totale 7.39 GB
Info Hash 2d35c62c4ecfbd286c75e6e7f4c53746777538de
Uploadé par abdelhachim
Uploadé le 2017-03-20 23:00:27 (+00:00)
Visites 273
évaluation 4.9/5 (9 votes)

Liste des Fichiers

Path Size
[email protected]v 7.39 GB

Voir le NFO

General
Unique ID                                : 219426687263993032293320804318383961456 (0xA5140AF250C7648693743B73F223F570)
Complete name                            : [email protected]v
Format                                   : Matroska
Format version                           : Version 2
File size                                : 7.39 GiB
Duration                                 : 1 h 38 min
Overall bit rate                         : 10.8 Mb/s
Encoded date                             : UTC 2017-03-20 14:49:29
Writing application                      : mkvmerge v9.9.0 ('Pick Up') 64bit
Writing library                          : libebml v1.3.4 + libmatroska v1.4.5

Video
ID                                       : 1
Format                                   : HEVC
Format/Info                              : High Efficiency Video Coding
Format profile                           : Main [email protected]@Main
Codec ID                                 : V_MPEGH/ISO/HEVC
Duration                                 : 1 h 38 min
Bit rate                                 : 9 243 kb/s
Width                                    : 1 920 pixels
Height                                   : 1 080 pixels
Display aspect ratio                     : 16:9
Frame rate mode                          : Constant
Frame rate                               : 24.000 FPS
Color space                              : YUV
Chroma subsampling                       : 4:2:0
Bit depth                                : 10 bits
Bits/(Pixel*Frame)                       : 0.186
Stream size                              : 6.35 GiB (86%)
Writing library                          : x265 2.2+32-bed9f6cbca09:[Windows][MSVC 1910][64 bit] 10bit
Encoding settings                        : cpuid=1173503 / frame-threads=3 / numa-pools=8 / wpp / no-pmode / no-pme / no-psnr / no-ssim / log-level=2 / input-csp=1 / input-res=1920x1080 / interlace=0 / total-frames=141533 / level-idc=0 / high-tier=1 / uhd-bd=0 / ref=3 / no-allow-non-conformance / no-repeat-headers / annexb / no-aud / no-hrd / info / hash=0 / no-temporal-layers / open-gop / min-keyint=24 / keyint=250 / bframes=4 / b-adapt=2 / b-pyramid / bframe-bias=0 / rc-lookahead=20 / lookahead-slices=6 / scenecut=40 / no-intra-refresh / ctu=64 / min-cu-size=8 / no-rect / no-amp / max-tu-size=32 / tu-inter-depth=1 / tu-intra-depth=1 / limit-tu=0 / rdoq-level=0 / complex-analysis=0.00 / signhide / no-tskip / nr-intra=0 / nr-inter=0 / no-constrained-intra / strong-intra-smoothing / max-merge=2 / limit-refs=3 / no-limit-modes / me=1 / subme=2 / merange=57 / temporal-mvp / weightp / no-weightb / no-analyze-src-pics / deblock=0:0 / sao / no-sao-non-deblock / rd=3 / no-early-skip / rskip / no-fast-intra / no-tskip-fast / no-cu-lossless / no-b-intra / rdpenalty=0 / psy-rd=2.00 / psy-rdoq=0.00 / no-rd-refine / analysis-mode=0 / no-lossless / cbqpoffs=0 / crqpoffs=0 / rc=crf / crf=15.0 / qcomp=0.60 / qpstep=4 / stats-write=0 / stats-read=0 / ipratio=1.40 / pbratio=1.30 / aq-mode=1 / aq-strength=1.00 / cutree / zone-count=0 / no-strict-cbr / qg-size=32 / no-rc-grain / qpmax=69 / qpmin=0 / sar=1 / overscan=0 / videoformat=5 / range=0 / colorprim=2 / transfer=2 / colormatrix=2 / chromaloc=0 / display-window=0 / max-cll=0,0 / min-luma=0 / max-luma=1023 / log2-max-poc-lsb=8 / vui-timing-info / vui-hrd-info / slices=1 / opt-qp-pps / opt-ref-list-length-pps / no-multi-pass-opt-rps / scenecut-bias=0.05 / no-opt-cu-delta-qp / no-aq-motion
Default                                  : Yes
Forced                                   : No

Audio
ID                                       : 2
Format                                   : DTS
Format/Info                              : Digital Theater Systems
Mode                                     : 16
Format settings, Endianness              : Big
Codec ID                                 : A_DTS
Duration                                 : 1 h 38 min
Bit rate mode                            : Constant
Bit rate                                 : 1 509 kb/s
Channel(s)                               : 6 channels
Channel positions                        : Front: L C R, Side: L R, LFE
Sampling rate                            : 48.0 kHz
Frame rate                               : 93.750 FPS (512 spf)
Bit depth                                : 24 bits
Compression mode                         : Lossy
Stream size                              : 1.04 GiB (14%)
Language                                 : French
Default                                  : Yes
Forced                                   : No

Text
ID                                       : 3
Format                                   : PGS
Muxing mode                              : zlib
Codec ID                                 : S_HDMV/PGS
Codec ID/Info                            : Picture based subtitle format used on BDs/HD-DVDs
Duration                                 : 1 h 38 min
Bit rate                                 : 7 769 b/s
Count of elements                        : 2408
Stream size                              : 5.46 MiB (0%)
Title                                    : Complets
Language                                 : French
Default                                  : No
Forced                                   : No

Menu
00:00:00.000                             : en:Chapter 1
00:05:01.000                             : en:Chapter 2
00:13:09.541                             : en:Chapter 3
00:19:06.583                             : en:Chapter 4
00:27:09.541                             : en:Chapter 5
00:37:59.416                             : en:Chapter 6
00:52:17.291                             : en:Chapter 7
01:01:38.791                             : en:Chapter 8
01:08:11.875                             : en:Chapter 9
01:14:30.250                             : en:Chapter 10
01:24:04.500                             : en:Chapter 11
01:29:24.041                             : en:Chapter 12

Ajouter un commentaire

 
Loading...