[Kaerizaki Fansub] Boruto - Naruto The Movie VOSTFR Version BLU-RAY SD URL Raccourcie


(¯`·._.· [Kaerizaki Fansub] Boruto - Naruto The Movie VOSTFR Version BLU-RAY SD ·._.·´¯ )





Réalisateur(s) : Hiroyuki Yamashita
Acteurs : Junko Takeuchi, Yuko Sanpei, Kokoro Kikuchi
Genre : Animation, Action, Comédie
Titre du film : Boruto: Naruto The Movie
Date de diffusion : 21 Octobre 2016



Après un conflit qui a déchiré toute la région, Konoha connait enfin la prospérité et le progrès. C’est dans ce contexte paisible que Naruto est nommé 7e Hokage à la tête du Village des Feuilles. Il prépare la tenue du prochain examen de sélection des Ninjas de Moyennes Classes afin de détecter de nouveaux talents. Seule ombre au tableau : son fils Boruto, qui lui en veut terriblement car il se sent délaissé. Mais voilà que Sasuke rentre brusquement au village avec des informations inquiétantes…
Boruto, en admiration devant le seul rival sérieux de son père, prend son courage à deux mains et supplie le dernier des Uchiwa de l’accepter comme disciple. Pendant les épreuves de l’examen, deux sombres individus s'attaquent à Naruto ! Boruto est tétanisé et ne doit la vie sauve qu’à l’intervention de Sasuke.
Il découvre stupéfait que Naruto a disparu avec ses mystérieux agresseurs au cours de l’attaque éclair…




Qualité : 848 x 480 pixels (Version SD)
Format : MKV
Langue : 
Sous-titre : 
Team : Kaerizaki Fansub
Taille du fichier : 969 MO
Taille total : 969 MO



SVP Restez en seed sur les torrents afin de faire partager à tous les fans. Merci



↓↓↓ [Kaerizaki Fansub] Boruto - Naruto The Movie VOSTFR Version BLU-RAY SD ↓↓↓
 
Seeders 14 Leechers 0 Téléchargements 207
 
Télécharger Dire merci! Signaler
Voir la liste des membres qui vous remercient
↑↑↑ [Kaerizaki Fansub] Boruto - Naruto The Movie VOSTFR Version BLU-RAY SD ↑↑↑

Informations

Nom [Kaerizaki Fansub] Boruto - Naruto The Movie VOSTFR Version BLU-RAY SD
Torrent [Kaerizaki-Fansub] Boruto - Naruto The Movie VOSTFR BLURAY SD (848x480).mp4.torrent
Catégorie Animation
Taille totale 968.78 MB
Info Hash 09f26817c2bddee8c575f7a7f6bbb06bb907fdd3
Uploadé par Kaerizaki-Fansub
Uploadé le 2016-12-08 17:52:15 (+00:00)
Visites 276
évaluation 5/5 (3 votes)

Liste des Fichiers

Path Size
[Kaerizaki-Fansub] Boruto - Naruto The Movie VOSTFR BLURAY SD (848x480).mp4 968.78 MB

Voir le NFO

General
Complete name                            : [Kaerizaki-Fansub] Boruto - Naruto The Movie VOSTFR BLURAY SD (848x480).mp4
Format                                   : MPEG-4
Format profile                           : Base Media
Codec ID                                 : isom
File size                                : 969 MiB
Duration                                 : 1h 35mn
Overall bit rate mode                    : Variable
Overall bit rate                         : 1 421 Kbps
Encoded date                             : UTC 2016-12-07 05:25:11
Tagged date                              : UTC 2016-12-07 05:25:11

Video
ID                                       : 1
Format                                   : AVC
Format/Info                              : Advanced Video Codec
Format profile                           : [email protected]
Format settings, CABAC                   : Yes
Format settings, ReFrames                : 6 frames
Codec ID                                 : avc1
Codec ID/Info                            : Advanced Video Coding
Duration                                 : 1h 35mn
Bit rate                                 : 1 014 Kbps
Maximum bit rate                         : 8 673 Kbps
Width                                    : 848 pixels
Height                                   : 480 pixels
Display aspect ratio                     : 16:9
Frame rate mode                          : Constant
Frame rate                               : 23.976 fps
Color space                              : YUV
Chroma subsampling                       : 4:2:0
Bit depth                                : 8 bits
Scan type                                : Progressive
Bits/(Pixel*Frame)                       : 0.104
Stream size                              : 692 MiB (71%)
Writing library                          : x264 core 148 r2638 7599210
Encoding settings                        : cabac=1 / ref=6 / deblock=1:1:1 / analyse=0x3:0x133 / me=hex / subme=7 / psy=1 / psy_rd=0.60:0.00 / mixed_ref=1 / me_range=16 / chroma_me=1 / trellis=1 / 8x8dct=1 / cqm=0 / deadzone=21,11 / fast_pskip=1 / chroma_qp_offset=-2 / threads=12 / lookahead_threads=2 / sliced_threads=0 / nr=0 / decimate=1 / interlaced=0 / bluray_compat=0 / constrained_intra=0 / bframes=6 / b_pyramid=2 / b_adapt=1 / b_bias=0 / direct=1 / weightb=1 / open_gop=0 / weightp=2 / keyint=240 / keyint_min=23 / scenecut=40 / intra_refresh=0 / rc_lookahead=40 / rc=crf / mbtree=1 / crf=16.2 / qcomp=0.60 / qpmin=10 / qpmax=51 / qpstep=4 / vbv_maxrate=168750 / vbv_bufsize=168750 / crf_max=0.0 / nal_hrd=none / filler=0 / ip_ratio=1.40 / aq=1:1.00
Encoded date                             : UTC 2016-12-07 05:25:11
Tagged date                              : UTC 2016-12-07 05:25:33
Color primaries                          : BT.709-5, BT.1361, IEC 61966-2-4, SMPTE RP177
Transfer characteristics                 : BT.709-5, BT.1361
Matrix coefficients                      : BT.709-5, BT.1361, IEC 61966-2-4 709, SMPTE RP177

Audio
ID                                       : 2
Format                                   : AAC
Format/Info                              : Advanced Audio Codec
Format profile                           : LC
Codec ID                                 : 40
Duration                                 : 1h 35mn
Bit rate mode                            : Variable
Bit rate                                 : 403 Kbps
Maximum bit rate                         : 525 Kbps
Channel(s)                               : 6 channels
Channel positions                        : Front: L C R, Side: L R, LFE
Sampling rate                            : 48.0 KHz
Compression mode                         : Lossy
Delay relative to video                  : -5s 5ms
Stream size                              : 275 MiB (28%)
Language                                 : Japanese
Encoded date                             : UTC 2016-12-07 04:29:31
Tagged date                              : UTC 2016-12-07 05:25:33

Menu
00:00:00.000                             : Chapter 1
00:02:57.667                             : Chapter 2
00:06:51.001                             : Chapter 3
00:11:29.468                             : Chapter 4
00:14:50.902                             : Chapter 5
00:18:36.002                             : Chapter 6
00:22:00.169                             : Chapter 7
00:33:16.469                             : Chapter 8
00:45:06.636                             : Chapter 9
00:48:22.537                             : Chapter 10
00:56:10.004                             : Chapter 11
01:04:40.504                             : Chapter 12
01:11:52.671                             : Chapter 13
01:16:16.505                             : Chapter 14
01:21:39.005                             : Chapter 15
01:25:45.205                             : Chapter 16
01:29:45.006                             : Chapter 17
01:34:16.573                             : Chapter 18
01:35:13.007                             : Chapter 19

Ajouter un commentaire

Kaerizaki-Fansub Compte Officiel ↑ 6.52 TB ↓ 66.09 GB Ratio: 101,09

N'hésitez pas à me contacter en cas de problème.
Bon visionnage à tous. ^^


Compte géré par Acool

 
Loading...