Live by Night [720p VOSTFR] BluRay x264 - Kayneth URL Raccourcie










Origine du film : Américain
Réalisateur(s) : Ben Affleck
Acteur(s) : Ben Affleck, Zoe Saldana, Elle Fanning
Genre : Thriller, Action, Policier
Durée : 2h09
Date de sortie : 18 janvier 2017





Avertissement : des scènes, des propos ou des images peuvent heurter la sensibilité des spectateurs.

Boston, dans les années 20. Malgré la Prohibition, l'alcool coule à flot dans les bars clandestins tenus par la mafia et il suffit d'un peu d'ambition et d'audace pour se faire une place au soleil. Fils du chef de la police de Boston, Joe Coughlin a rejeté depuis longtemps l'éducation très stricte de son père pour mener une vie de criminel. Pourtant, même chez les voyous, il existe un code d'honneur que Joe n'hésite pas à bafouer : il se met à dos un puissant caïd en lui volant son argent et sa petite amie. Sa liaison passionnelle ne tarde pas à provoquer le chaos. Entre vengeance, trahisons et ambitions contrariées, Joe quittera Boston pour s'imposer au sein de la mafia de Tampa...





Qualité : Blu-Ray 720p
Format : MKV
Langue(s) :
Sous-titre(s) :

Bitrate Audio : AC3 à 384 kbps (6 canaux)
Bitrate Video : X264 à 1460 Kbps environ (crf 19)

Taille du fichier : 1.66 GO



Découvrez la version 720p en VOSTFR du nouveau film de Ben Affleck. Une fois encore des deux côtés de la caméra, tout comme "Argo" ou "Gone Baby Gone", l'acteur/réalisateur signe ici un hommage aux films cultes du genre, n'hésitant pas à dire qu'il s'est inspiré de "Il était une fois en Amérique". De bonne facture globale, notamment par rapport aux costumes et à l'ambiance, cette oeuvre souffre néanmoins de quelques points faibles, qui ne suffiront pas à vous gâcher le plaisir du visionnage.

Ceci est une exclusivité sur T411.

N'hésitez pas à me faire part de vos remarques, critiques, appréciations en tout genre.

Bon film à tous !








↓↓↓ Live by Night [720p VOSTFR] BluRay x264 - Kayneth ↓↓↓
 
Seeders 183 Leechers 1 Téléchargements 522
 
Télécharger Dire merci! Signaler
Voir la liste des membres qui vous remercient
↑↑↑ Live by Night [720p VOSTFR] BluRay x264 - Kayneth ↑↑↑

Informations

Nom Live by Night [720p VOSTFR] BluRay x264 - Kayneth
Torrent Live by Night.mkv.torrent
Catégorie Film
Taille totale 1.66 GB
Info Hash e12fa769603123001c012c5e94bb6ade2d288961
Uploadé par Kayneth
Uploadé le 2017-03-20 23:00:10 (+00:00)
Visites 714
évaluation 4.8/5 (12 votes)

Liste des Fichiers

Path Size
Live by Night.mkv 1.66 GB

Voir le NFO

 ■General

Complete name               : Live by Night.mkv
Format                      : Matroska
File size                   : 1.66 GiB
Duration                    : 2 h 8 min
Overall bit rate            : 1 847 kb/s

Video

ID                          : 1
Format                      : AVC
Format/Info                 : Advanced Video Codec
Format profile              : High@L4.1
Format settings, CABAC      : Yes
Format settings, ReFrames   : 8 frames
Codec ID                    : V_MPEG4/ISO/AVC
Duration                    : 2 h 8 min
Bit rate                    : 1 461 kb/s
Width                       : 1 280 pixels
Height                      : 534 pixels
Display aspect ratio        : 2.40:1
Frame rate mode             : Constant
Frame rate                  : 23.976 (24000/1001) FPS
Color space                 : YUV
Chroma subsampling          : 4:2:0
Bit depth                   : 8 bits
Scan type                   : Progressive
Bits/(Pixel*Frame)          : 0.089
Stream size                 : 1.32 GiB (79%)
Writing library             : x264 core 148 r2638 7599210
Encoding settings           : cabac=1 / ref=8 / deblock=1:-1:-1 / analyse=0x3:0x133 / me=umh / subme=11 / psy=1 / psy_rd=1.00:0.15 / mixed_ref=1 / me_range=24 / chroma_me=1 / trellis=2 / 8x8dct=1 / cqm=0 / deadzone=21,11 / fast_pskip=0 / chroma_qp_offset=-3 / threads=6 / lookahead_threads=1 / sliced_threads=0 / nr=0 / decimate=1 / interlaced=0 / bluray_compat=0 / constrained_intra=0 / bframes=3 / b_pyramid=2 / b_adapt=2 / b_bias=0 / direct=3 / weightb=1 / open_gop=0 / weightp=2 / keyint=240 / keyint_min=23 / scenecut=40 / intra_refresh=0 / rc_lookahead=60 / rc=crf / mbtree=1 / crf=19.0 / qcomp=0.60 / qpmin=0 / qpmax=69 / qpstep=4 / vbv_maxrate=24000 / vbv_bufsize=24000 / crf_max=0.0 / nal_hrd=none / filler=0 / ip_ratio=1.40 / aq=1:1.00
Default                     : Yes
Forced                      : No
Color range                 : Limited
Color primaries             : BT.709
Transfer characteristics    : BT.709
Matrix coefficients         : BT.709

Audio

ID                          : 2
Format                      : AC-3
Format/Info                 : Audio Coding 3
Mode extension              : CM (complete main)
Format settings, Endianness : Big
Codec ID                    : A_AC3
Duration                    : 2 h 8 min
Bit rate mode               : Constant
Bit rate                    : 384 kb/s
Channel(s)                  : 6 channels
Channel positions           : Front: L C R, Side: L R, LFE
Sampling rate               : 48.0 kHz
Frame rate                  : 31.250 FPS (1536 spf)
Bit depth                   : 16 bits
Compression mode            : Lossy
Stream size                 : 354 MiB (21%)
Title                       : VO
Language                    : English
Default                     : Yes
Forced                      : No

Text

ID                          : 3
Format                      : UTF-8
Codec ID                    : S_TEXT/UTF8
Codec ID/Info               : UTF-8 Plain Text
Duration                    : 2 h 8 min
Bit rate                    : 53 b/s
Count of elements           : 1594
Stream size                 : 50.5 KiB (0%)
Title                       : Sous-titres pour VO
Language                    : French
Default                     : Yes
Forced                      : No

Ajouter un commentaire

 
Loading...