Maelström (Denis Villeneuve 2000) URL Raccourcie


Maelström

de Denis Villeneuve

85mn 2000








C’est un poisson qui raconte cette histoire, un poisson issu du magma aquatique du début de la formation de l’univers. Par un soir d’été pluvieux, une jeune femme, Bibiane Champagne, percute un homme avec sa voiture. Le blessé, un immigré norvégien, réussit à rentrer chez lui pour y mourir doucement. La vie de Bibiane plonge alors dans un chaos inimaginable. Au moment où elle risque sa vie pour effacer toutes traces de son geste, elle se voit donner une nouvelle chance, comme une deuxième naissance issue des eaux du fleuve. Ce dialogue entre la vie et la mort, entre la terre et l’eau, va trouver son aboutissement lorsque la jeune femme rencontre celui qui va changer son destin.







Avec:
Marie-Josée Croze : Bibiane Champagne
Jean-Nicolas Verreault : Evian
Stéphanie Morgenstern : Claire Gunderson
Pierre Lebeau : La voix du poisson

Codec vidéo : x264
Codec audio : AC3

Version française avec sous-titres optionnels en français et en anglais

Retrouvez mes autres uploads ici!

↓↓↓ Maelström (Denis Villeneuve 2000) ↓↓↓
 
Seeders 49 Leechers 0 Téléchargements 145
 
Télécharger Dire merci! Signaler
Voir la liste des membres qui vous remercient
↑↑↑ Maelström (Denis Villeneuve 2000) ↑↑↑

Informations

Nom Maelström (Denis Villeneuve 2000)
Torrent Maelstrom (Denis Villeneuve 2000).mkv.torrent
Catégorie Film
Taille totale 1.01 GB
Info Hash 9e52fbad160b03326e817a4756513d52510e571e
Uploadé par qioell
Uploadé le 2017-03-20 12:28:18 (+00:00)
Visites 221
évaluation 4.3/5 (8 votes)

Liste des Fichiers

Path Size
Maelstrom (Denis Villeneuve 2000).mkv 1.01 GB

Voir le NFO

General
Unique ID                                : 203931963508720769204677997563848350330 (0x996BDE15644D5533A0AC562A4212DA7A)
Complete name                            : E:\Mes videos\Denis Villeneuve\Maelstrom (Denis Villeneuve 2000).mkv
Format                                   : Matroska
Format version                           : Version 4 / Version 2
File size                                : 1.01 GiB
Duration                                 : 1 h 25 min
Overall bit rate                         : 1 689 kb/s
Encoded date                             : UTC 2017-03-20 11:05:33
Writing application                      : mkvmerge v9.8.0 ('Kuglblids') 64bit
Writing library                          : libebml v1.3.4 + libmatroska v1.4.5

Video
ID                                       : 1
Format                                   : AVC
Format/Info                              : Advanced Video Codec
Format profile                           : [email protected]
Format settings, CABAC                   : Yes
Format settings, ReFrames                : 5 frames
Codec ID                                 : V_MPEG4/ISO/AVC
Duration                                 : 1 h 25 min
Bit rate                                 : 1 500 kb/s
Width                                    : 720 pixels
Height                                   : 480 pixels
Display aspect ratio                     : 16:9
Frame rate mode                          : Constant
Frame rate                               : 29.970 (30000/1001) FPS
Standard                                 : NTSC
Color space                              : YUV
Chroma subsampling                       : 4:2:0
Bit depth                                : 8 bits
Scan type                                : Progressive
Bits/(Pixel*Frame)                       : 0.145
Stream size                              : 911 MiB (89%)
Writing library                          : x264 core 148 r2721
Encoding settings                        : cabac=1 / ref=5 / deblock=1:0:0 / analyse=0x3:0x133 / me=umh / subme=8 / psy=1 / psy_rd=1.00:0.00 / mixed_ref=1 / me_range=16 / chroma_me=1 / trellis=0 / 8x8dct=1 / cqm=0 / deadzone=21,11 / fast_pskip=0 / chroma_qp_offset=-2 / threads=12 / lookahead_threads=3 / sliced_threads=0 / nr=0 / decimate=1 / interlaced=0 / bluray_compat=0 / constrained_intra=0 / bframes=16 / b_pyramid=2 / b_adapt=2 / b_bias=0 / direct=3 / weightb=1 / open_gop=0 / weightp=2 / keyint=250 / keyint_min=25 / scenecut=40 / intra_refresh=0 / rc_lookahead=50 / rc=2pass / mbtree=1 / bitrate=1500 / ratetol=1.0 / qcomp=0.60 / qpmin=10 / qpmax=69 / qpstep=4 / cplxblur=20.0 / qblur=0.5 / vbv_maxrate=2000 / vbv_bufsize=24000 / nal_hrd=none / filler=0 / ip_ratio=1.40 / aq=3:1.00
Default                                  : Yes
Forced                                   : No

Audio
ID                                       : 2
Format                                   : AC-3
Format/Info                              : Audio Coding 3
Mode extension                           : CM (complete main)
Format settings, Endianness              : Big
Codec ID                                 : A_AC3
Duration                                 : 1 h 25 min
Bit rate mode                            : Constant
Bit rate                                 : 192 kb/s
Channel(s)                               : 2 channels
Channel positions                        : Front: L R
Sampling rate                            : 48.0 kHz
Frame rate                               : 31.250 FPS (1536 spf)
Bit depth                                : 16 bits
Compression mode                         : Lossy
Stream size                              : 117 MiB (11%)
Language                                 : French
Default                                  : Yes
Forced                                   : No

Text #1
ID                                       : 3
Format                                   : UTF-8
Codec ID                                 : S_TEXT/UTF8
Codec ID/Info                            : UTF-8 Plain Text
Duration                                 : 1 h 20 min
Bit rate                                 : 33 b/s
Count of elements                        : 621
Stream size                              : 19.8 KiB (0%)
Language                                 : French
Default                                  : Yes
Forced                                   : No

Text #2
ID                                       : 4
Format                                   : UTF-8
Codec ID                                 : S_TEXT/UTF8
Codec ID/Info                            : UTF-8 Plain Text
Duration                                 : 1 h 20 min
Bit rate                                 : 21 b/s
Count of elements                        : 479
Stream size                              : 12.8 KiB (0%)
Language                                 : English
Default                                  : No
Forced                                   : No

Menu
00:00:00.000                             : :Chapter 01
00:09:08.200                             : :Chapter 02
00:15:10.700                             : :Chapter 03
00:24:20.000                             : :Chapter 04
00:31:05.700                             : :Chapter 05
00:37:25.700                             : :Chapter 06
00:44:35.666                             : :Chapter 07
00:48:55.466                             : :Chapter 08
00:52:54.366                             : :Chapter 09
01:00:36.966                             : :Chapter 10
01:07:34.966                             : :Chapter 11
01:18:29.966                             : :Chapter 12

Ajouter un commentaire

oscar72 ↑ 10.61 TB ↓ 1.91 TB Ratio: 5,53

Plus de seeder

oscar72 ↑ 10.61 TB ↓ 1.91 TB Ratio: 5,53

Plus de seeder

mickeyrourke JE vous aime ↑ 5.21 TB ↓ 2.8 TB Ratio: 1,85

je l ai jamais vu celui la merci infinimenet
merci a 411
car sans se site nous serions incapable de voir !!!!!

JE vous aime

 
Loading...