Marvels.Iron.Fist.S01.VOSTFR.WEBRip.x264-ARK01 URL Raccourcie


Marvel's Iron Fist Saison 1 VOSTFR





Origine de la série : Américaine
Réalisateur(s) : Scott Buck
Acteurs : Finn Jones, Jessica Henwick, David Wenham
Genre : Action, Fantastique
Note : 4.1
Fiche allociné : Marvel's Iron Fist



Après avoir disparu quelques années, Danny Rand revient à New York pour combattre les criminels qui en ont fait une ville corrompue, grâce à ses connaissances en kung-fu et la puissance destructrice de son poing.





Qualité : WEBRip
Format : Mpeg4
Langue :
Sous-titres : Officiels
Codec vidéo : x264
Codec audio : AAC

.:: Release ::.
Marvels.Iron.Fist.S01.VOSTFR.WEBRip.x264-ARK01


Total du post : 4.93 Go



↓↓↓ Marvels.Iron.Fist.S01.VOSTFR.WEBRip.x264-ARK01 ↓↓↓
 
Seeders 326 Leechers 25 Téléchargements 897
 
Télécharger Dire merci! Signaler
Voir la liste des membres qui vous remercient
↑↑↑ Marvels.Iron.Fist.S01.VOSTFR.WEBRip.x264-ARK01 ↑↑↑

Informations

Nom Marvels.Iron.Fist.S01.VOSTFR.WEBRip.x264-ARK01
Torrent Marvels.Iron.Fist.S01.VOSTFR.WEBRip.x264-ARK01.torrent
Catégorie Série TV
Taille totale 4.93 GB
Info Hash 5c419eba316fe1b2371ea5179af68950c7433977
Uploadé par Arkhos01
Uploadé le 2017-03-20 09:13:37 (+00:00)
Visites 1378
évaluation 4.8/5 (17 votes)

Liste des Fichiers

Path Size
Marvels.Iron.Fist.S01.VOSTFR.WEBRip.x264-ARK01/Marvels.Iron.Fist.S01E01.VOSTFR.WEBRip.x264-ARK01.mp4 462.6 MB
Marvels.Iron.Fist.S01.VOSTFR.WEBRip.x264-ARK01/Marvels.Iron.Fist.S01E02.VOSTFR.WEBRip.x264-ARK01.mp4 414.69 MB
Marvels.Iron.Fist.S01.VOSTFR.WEBRip.x264-ARK01/Marvels.Iron.Fist.S01E03.VOSTFR.WEBRip.x264-ARK01.mp4 429.36 MB
Marvels.Iron.Fist.S01.VOSTFR.WEBRip.x264-ARK01/Marvels.Iron.Fist.S01E04.VOSTFR.WEBRip.x264-ARK01.mp4 371.65 MB
Marvels.Iron.Fist.S01.VOSTFR.WEBRip.x264-ARK01/Marvels.Iron.Fist.S01E05.VOSTFR.WEBRip.x264-ARK01.mp4 369.63 MB
Marvels.Iron.Fist.S01.VOSTFR.WEBRip.x264-ARK01/Marvels.Iron.Fist.S01E06.VOSTFR.WEBRip.x264-ARK01.mp4 348.54 MB
Marvels.Iron.Fist.S01.VOSTFR.WEBRip.x264-ARK01/Marvels.Iron.Fist.S01E07.VOSTFR.WEBRip.x264-ARK01.mp4 320.25 MB
Marvels.Iron.Fist.S01.VOSTFR.WEBRip.x264-ARK01/Marvels.Iron.Fist.S01E08.VOSTFR.WEBRip.x264-ARK01.mp4 420.43 MB
Marvels.Iron.Fist.S01.VOSTFR.WEBRip.x264-ARK01/Marvels.Iron.Fist.S01E09.VOSTFR.WEBRip.x264-ARK01.mp4 339.41 MB
Marvels.Iron.Fist.S01.VOSTFR.WEBRip.x264-ARK01/Marvels.Iron.Fist.S01E10.VOSTFR.WEBRip.x264-ARK01.mp4 421.28 MB
Marvels.Iron.Fist.S01.VOSTFR.WEBRip.x264-ARK01/Marvels.Iron.Fist.S01E11.VOSTFR.WEBRip.x264-ARK01.mp4 354.01 MB
Marvels.Iron.Fist.S01.VOSTFR.WEBRip.x264-ARK01/Marvels.Iron.Fist.S01E12.VOSTFR.WEBRip.x264-ARK01.mp4 380 MB
Marvels.Iron.Fist.S01.VOSTFR.WEBRip.x264-ARK01/Marvels.Iron.Fist.S01E13.FiNAL.VOSTFR.WEBRip.x264-ARK01.mp4 411.87 MB

Voir le NFO

General
Complete name               : Marvels.Iron.Fist.S01E13.FiNAL.VOSTFR.WEBRip.x264-ARK01.mp4
Format                      : MPEG-4
Format profile              : Base Media
Codec ID                    : isom
File size                   : 412 MiB
Duration                    : 52mn 53s
Overall bit rate mode       : Variable
Overall bit rate            : 1 089 Kbps
Encoded date                : UTC 2017-03-20 01:24:39
Tagged date                 : UTC 2017-03-20 01:24:39

Video
ID                          : 1
Format                      : AVC
Format/Info                 : Advanced Video Codec
Format profile              : [email protected]
Format settings, CABAC      : Yes
Format settings, ReFrames   : 5 frames
Codec ID                    : avc1
Codec ID/Info               : Advanced Video Coding
Duration                    : 52mn 53s
Bit rate                    : 953 Kbps
Maximum bit rate            : 5 792 Kbps
Width                       : 720 pixels
Height                      : 404 pixels
Display aspect ratio        : 16:9
Frame rate mode             : Constant
Frame rate                  : 23.976 fps
Color space                 : YUV
Chroma subsampling          : 4:2:0
Bit depth                   : 8 bits
Scan type                   : Progressive
Bits/(Pixel*Frame)          : 0.137
Stream size                 : 360 MiB (88%)
Writing library             : x264 core 148 r2762 90a61ec
Encoded date                : UTC 2017-03-20 01:24:39
Tagged date                 : UTC 2017-03-20 01:24:46
Color range                 : Limited
Matrix coefficients         : BT.709

Audio
ID                          : 2
Format                      : AAC
Format/Info                 : Advanced Audio Codec
Format profile              : LC
Codec ID                    : 40
Duration                    : 52mn 53s
Bit rate mode               : Variable
Bit rate                    : 132 Kbps
Maximum bit rate            : 215 Kbps
Channel(s)                  : 2 channels
Channel positions           : Front: L R
Sampling rate               : 48.0 KHz
Compression mode            : Lossy
Stream size                 : 49.9 MiB (12%)
Encoded date                : UTC 2017-03-20 01:04:09
Tagged date                 : UTC 2017-03-20 01:24:46

Sources : DEFLATE - NETFLIX

Ajouter un commentaire

SolaraBlake ↑ 514.94 GB ↓ 272.14 GB Ratio: 1,89

Ca poutre comme d'hab'! Merci l'ami

godhorus ↑ 5.32 TB ↓ 4.48 TB Ratio: 1,18

merci pour la version plus légère!

 
Loading...