Marvels.Iron.Fist.S01E02.1080p.WEBRip.x264-SKGTV URL Raccourcie


Marvel's Iron Fist S01E02 1080p
VO


Après avoir disparu quelques années, Danny Rand revient à New York pour combattre les criminels qui en ont fait une ville corrompue, grâce à ses connaissances en kung-fu et la puissance destructrice de son poing.




Créée par : Scott Buck (2017)
Avec : Finn Jones, Jessica Henwick, David Wenham...
Nationalité : USA

Episode 2 - Shadow Hawk Takes Flight
Scénariste : Scott Buck
Réalisateur : John Dahl

Qualité : WEBRip 1080p
Format : MKV
Codec vidéo : x264
Audio : Anglais
Codec audio : A52 Audio (aka AC3)


Total du post : 4.94 Go
Marvels.Iron.Fist.S01E02.1080p.WEBRip.x264-SKGTV


↓↓↓ Marvels.Iron.Fist.S01E02.1080p.WEBRip.x264-SKGTV ↓↓↓
 
Seeders 3 Leechers 0 Téléchargements 14
 
Télécharger Dire merci! Signaler
Voir la liste des membres qui vous remercient
↑↑↑ Marvels.Iron.Fist.S01E02.1080p.WEBRip.x264-SKGTV ↑↑↑

Informations

Nom Marvels.Iron.Fist.S01E02.1080p.WEBRip.x264-SKGTV
Torrent Marvels.Iron.Fist.S01E02.1080p.WEBRip.x264-SKGTV.torrent
Catégorie Série TV
Taille totale 4.94 GB
Info Hash 8e5290b4eac3b3deccc6d19b4b587ab502017334
Uploadé par Anonymous
Uploadé le 2017-03-20 20:52:53 (+00:00)
Visites 106
évaluation 5/5 (1 votes)

Liste des Fichiers

Path Size
Marvels.Iron.Fist.S01E02.1080p.WEBRip.x264-SKGTV/Marvels.Iron.Fist.S01E02.1080p.WEBRip.x264-SKGTV.nfo 3.63 KB
Marvels.Iron.Fist.S01E02.1080p.WEBRip.x264-SKGTV/Marvels.Iron.Fist.S01E02.1080p.WEBRip.x264-SKGTV.mkv 4.94 GB

Voir le NFO

Format                                   : Matroska
Format version                           : Version 4 / Version 2
File size                                : 4.94 GiB
Duration                                 : 1 h 1 min
Overall bit rate                         : 11.6 Mb/s
Movie name                               : marvels.iron.fist.s01e02.1080p.skgtv
Encoded date                             : UTC 2017-03-17 14:31:14
Writing application                      : mkvmerge v8.9.0 ('Father Daughter') 32bit
Writing library                          : libebml v1.3.3 + libmatroska v1.4.4

Video
ID                                       : 1
Format                                   : AVC
Format/Info                              : Advanced Video Codec
Format profile                           : [email protected]
Format settings, CABAC                   : Yes
Format settings, ReFrames                : 4 frames
Codec ID                                 : V_MPEG4/ISO/AVC
Duration                                 : 1 h 1 min
Bit rate                                 : 10.9 Mb/s
Width                                    : 1 920 pixels
Height                                   : 1 080 pixels
Display aspect ratio                     : 16:9
Frame rate mode                          : Constant
Frame rate                               : 23.976 (24000/1001) FPS
Color space                              : YUV
Chroma subsampling                       : 4:2:0
Bit depth                                : 8 bits
Scan type                                : Progressive
Bits/(Pixel*Frame)                       : 0.220
Stream size                              : 4.67 GiB (94%)
Writing library                          : x264 core 148 r2762 90a61ec
Encoding settings                        : cabac=1 / ref=4 / deblock=1:-3:-3 / analyse=0x3:0x113 / me=hex / subme=8 / psy=1 / psy_rd=1.00:0.00 / mixed_ref=1 / me_range=16 / chroma_me=1 / trellis=2 / 8x8dct=1 / cqm=0 / deadzone=21,11 / fast_pskip=1 / chroma_qp_offset=-2 / threads=18 / lookahead_threads=3 / sliced_threads=0 / nr=0 / decimate=1 / interlaced=0 / bluray_compat=0 / constrained_intra=0 / bframes=3 / b_pyramid=2 / b_adapt=1 / b_bias=0 / direct=3 / weightb=1 / open_gop=0 / weightp=2 / keyint=250 / keyint_min=23 / scenecut=40 / intra_refresh=0 / rc_lookahead=50 / rc=crf / mbtree=1 / crf=17.0 / qcomp=0.60 / qpmin=0 / qpmax=69 / qpstep=4 / ip_ratio=1.40 / aq=1:1.00
Language                                 : English
Default                                  : Yes
Forced                                   : No
Color range                              : Limited
Matrix coefficients                      : BT.709

Audio
ID                                       : 2
Format                                   : AC-3
Format/Info                              : Audio Coding 3
Format settings, Endianness              : Big
Codec ID                                 : A_AC3
Duration                                 : 1 h 1 min
Bit rate mode                            : Constant
Bit rate                                 : 640 kb/s
Channel(s)                               : 6 channels
Channel positions                        : Front: L C R, Side: L R, LFE
Sampling rate                            : 48.0 kHz
Frame rate                               : 31.250 FPS (1536 spf)
Bit depth                                : 16 bits
Compression mode                         : Lossy
Stream size                              : 280 MiB (6%)
Language                                 : English
Service kind                             : Complete Main
Default                                  : Yes
Forced                                   : No

Ajouter un commentaire

 
Loading...