Miss.Sloane.2016.FRENCH.720p.BluRay.x264-ANONA URL Raccourcie






Origine : États-Unis, France
Réalisateur : John Madden
Acteurs : Jessica Chastain, Mark Strong, Sam Waterston, Gugu Mbatha-Raw, Alison Pill
Genre : Drame
Durée : 2h 12min
Date de sortie : 08 Mars 2017
Année de production : 2016
Titre original : Miss Sloane
Critiques Spectateurs : 3.5
Plus d'information sur imdb : http://www.imdb.com/title/tt4540710/
Plus d'information sur allocine : http://www.allocine.fr/film/fichefilm_gen_cfilm=245042.html
Bande annonce : Miss Sloane Bande-annonce VF



Elizabeth Sloane est une femme d’influence brillante et sans scrupules qui opère dans les coulisses de Washington. Face au plus grand défi de sa carrière, elle va redoubler de manigances et manipulations pour atteindre une victoire qui pourrait s’avérer éclatante. Mais les méthodes dont elle use pour parvenir à ses fins menacent à la fois sa carrière et ses proches. Miss Sloane pourrait bien avoir enfin trouvé un adversaire à sa taille.



Qualité : BluRay 720p
Format : MKV
Langue : Québécois
Sous-titre : Français forcé
Codec vidéo : x264 à 5455 kbps
Codec audio : AC3 à 448 kbps

Source video : Miss.Sloane.2016.1080p.BluRay.REMUX.AVC.DTS-HD.MA.5.1-FGT
Source audio : Miss.Sloane.2016.MULTI.1080p.BluRay.x264-CINeHD

Merci à eux !


↓↓↓ Miss.Sloane.2016.FRENCH.720p.BluRay.x264-ANONA ↓↓↓
 
Seeders 161 Leechers 3 Téléchargements 421
 
Télécharger Dire merci! Signaler
Voir la liste des membres qui vous remercient
↑↑↑ Miss.Sloane.2016.FRENCH.720p.BluRay.x264-ANONA ↑↑↑

Informations

Nom Miss.Sloane.2016.FRENCH.720p.BluRay.x264-ANONA
Torrent Miss.Sloane.2016.FRENCH.720p.BluRay.x264-ANONA.torrent
Catégorie Film
Taille totale 5.45 GB
Info Hash 6b473788ee4ec73c2bb38d3561bbca4c22b678dc
Uploadé par Anonymous
Uploadé le 2017-03-20 23:00:36 (+00:00)
Visites 599
évaluation 4.9/5 (12 votes)

Liste des Fichiers

Path Size
Miss.Sloane.2016.FRENCH.720p.BluRay.x264-ANONA.mkv 5.45 GB

Voir le NFO

General
Unique ID                                : 251617947372002862255785392837107026496 (0xBD4BDA9BBD5CCEC2A520CF8846428A40)
Complete name                            : Miss.Sloane.2016.FRENCH.720p.BluRay.x264-ANONA.mkv
Format                                   : Matroska
Format version                           : Version 4 / Version 2
File size                                : 5.45 GiB
Duration                                 : 2h 12mn
Overall bit rate                         : 5 904 Kbps
Encoded date                             : UTC 2017-03-19 12:04:18
Writing application                      : mkvmerge v9.9.0 ('Pick Up') 64bit
Writing library                          : libebml v1.3.4 + libmatroska v1.4.5

Video
ID                                       : 1
Format                                   : AVC
Format/Info                              : Advanced Video Codec
Format profile                           : [email protected]
Format settings, CABAC                   : Yes
Format settings, ReFrames                : 5 frames
Codec ID                                 : V_MPEG4/ISO/AVC
Duration                                 : 2h 12mn
Bit rate                                 : 5 455 Kbps
Width                                    : 1 280 pixels
Height                                   : 536 pixels
Display aspect ratio                     : 2.40:1
Frame rate mode                          : Constant
Frame rate                               : 23.976 (24000/1001) fps
Color space                              : YUV
Chroma subsampling                       : 4:2:0
Bit depth                                : 8 bits
Scan type                                : Progressive
Bits/(Pixel*Frame)                       : 0.332
Stream size                              : 4.93 GiB (90%)
Writing library                          : x264 core 148 r2708 86b7198
Encoding settings                        : cabac=1 / ref=5 / deblock=1:0:0 / analyse=0x3:0x113 / me=umh / subme=8 / psy=1 / psy_rd=1.00:0.00 / mixed_ref=1 / me_range=16 / chroma_me=1 / trellis=1 / 8x8dct=1 / cqm=0 / deadzone=21,11 / fast_pskip=1 / chroma_qp_offset=-2 / threads=12 / lookahead_threads=2 / sliced_threads=0 / nr=0 / decimate=1 / interlaced=0 / bluray_compat=0 / constrained_intra=0 / bframes=3 / b_pyramid=2 / b_adapt=2 / b_bias=0 / direct=3 / weightb=1 / open_gop=0 / weightp=2 / keyint=240 / keyint_min=24 / scenecut=40 / intra_refresh=0 / rc_lookahead=50 / rc=2pass / mbtree=1 / bitrate=5455 / ratetol=1.0 / qcomp=0.60 / qpmin=0 / qpmax=69 / qpstep=4 / cplxblur=20.0 / qblur=0.5 / vbv_maxrate=62500 / vbv_bufsize=78125 / nal_hrd=none / filler=0 / ip_ratio=1.40 / aq=1:1.00
Language                                 : English
Default                                  : Yes
Forced                                   : No
Color range                              : Limited
Color primaries                          : BT.709
Transfer characteristics                 : BT.709
Matrix coefficients                      : BT.709

Audio
ID                                       : 2
Format                                   : AC-3
Format/Info                              : Audio Coding 3
Mode extension                           : CM (complete main)
Format settings, Endianness              : Big
Codec ID                                 : A_AC3
Duration                                 : 2h 12mn
Bit rate mode                            : Constant
Bit rate                                 : 448 Kbps
Channel(s)                               : 6 channels
Channel positions                        : Front: L C R, Side: L R, LFE
Sampling rate                            : 48.0 KHz
Frame rate                               : 31.250 fps (1536 spf)
Compression mode                         : Lossy
Stream size                              : 424 MiB (8%)
Language                                 : French
Default                                  : Yes
Forced                                   : No

Text
ID                                       : 3
Format                                   : UTF-8
Codec ID                                 : S_TEXT/UTF8
Codec ID/Info                            : UTF-8 Plain Text
Title                                    : Forced
Language                                 : French
Default                                  : Yes
Forced                                   : No

Menu
00:00:00.000                             : en:00:00:00.000
00:03:17.572                             : en:00:03:17.572
00:10:01.810                             : en:00:10:01.810
00:14:33.331                             : en:00:14:33.331
00:21:39.632                             : en:00:21:39.632
00:27:24.601                             : en:00:27:24.601
00:30:24.614                             : en:00:30:24.614
00:35:40.597                             : en:00:35:40.597
00:40:37.018                             : en:00:40:37.018
00:45:36.651                             : en:00:45:36.651
00:50:08.130                             : en:00:50:08.130
00:56:55.662                             : en:00:56:55.662
01:01:31.146                             : en:01:01:31.146
01:05:00.563                             : en:01:05:00.563
01:10:10.415                             : en:01:10:10.415
01:15:56.552                             : en:01:15:56.552
01:22:25.399                             : en:01:22:25.399
01:31:17.097                             : en:01:31:17.097
01:35:47.825                             : en:01:35:47.825
01:41:48.436                             : en:01:41:48.436
01:45:25.653                             : en:01:45:25.653
01:54:30.781                             : en:01:54:30.781
02:03:40.288                             : en:02:03:40.288
02:08:02.008                             : en:02:08:02.008


Ajouter un commentaire

 
Loading...