New.Girl.S06E12.FASTSUB.VOSTFR.720p.HDTV.x264-ARK01 URL Raccourcie


New Girl S06E12 VOSTFR 720p





Origine de la série : Américaine
Réalisateur(s) : Elizabeth Meriwether
Acteurs : Zooey Deschanel, Max Greenfield, Jake Johnson
Genre : Comédie
Note : 4.1
Fiche allociné : New Girl



Depuis qu'elle a découvert l'infidélité de son petit ami, Jess, une jeune femme naïve et maladroite, partage un appartement avec trois garçons : Schmidt, Nick et Winston. Cette cohabitation change leur quotidien à tous. Entre leurs déboires sentimentaux respectifs, la petite bande cherche sa place dans le monde.



Qualité : HDTV 720p
Format : MKV
Langue :
Sous-titres :
Codec vidéo : x264
Codec audio : AC3 5.1

.:: Release ::.
New.Girl.S06E12.FASTSUB.VOSTFR.720p.HDTV.x264-ARK01


Total du post : 500 Mo



↓↓↓ New.Girl.S06E12.FASTSUB.VOSTFR.720p.HDTV.x264-ARK01 ↓↓↓
 
Seeders 169 Leechers 0 Téléchargements 1371
 
Télécharger Dire merci! Signaler
Voir la liste des membres qui vous remercient
↑↑↑ New.Girl.S06E12.FASTSUB.VOSTFR.720p.HDTV.x264-ARK01 ↑↑↑

Informations

Nom New.Girl.S06E12.FASTSUB.VOSTFR.720p.HDTV.x264-ARK01
Torrent New.Girl.S06E12.FASTSUB.VOSTFR.720p.HDTV.x264-ARK01.mkv.torrent
Catégorie Série TV
Taille totale 500.43 MB
Info Hash 84a0fc624bdd9af95c1fc41f94ad3252c358a694
Uploadé par Arkhos01
Uploadé le 2017-01-11 21:08:20 (+00:00)
Visites 1894
évaluation 4.8/5 (10 votes)

Liste des Fichiers

Path Size
New.Girl.S06E12.FASTSUB.VOSTFR.720p.HDTV.x264-ARK01.mkv 500.43 MB

Voir le NFO

General
Complete name               : New.Girl.S06E12.FASTSUB.VOSTFR.720p.HDTV.x264-ARK01.mkv
Format                      : Matroska
Format version              : Version 4 / Version 2
File size                   : 500 MiB
Duration                    : 21mn 35s
Overall bit rate            : 3 241 Kbps
Encoded date                : UTC 2017-01-11 21:04:57
Writing application         : mkvmerge v8.3.0 ('Over the Horizon') 64bit
Writing library             : libebml v1.3.1 + libmatroska v1.4.2

Video
ID                          : 1
Format                      : AVC
Format/Info                 : Advanced Video Codec
Format profile              : [email protected]
Format settings, CABAC      : Yes
Format settings, ReFrames   : 5 frames
Codec ID                    : V_MPEG4/ISO/AVC
Duration                    : 21mn 35s
Bit rate                    : 2 793 Kbps
Width                       : 1 280 pixels
Height                      : 718 pixels
Display aspect ratio        : 16:9
Frame rate mode             : Constant
Frame rate                  : 23.976 fps
Color space                 : YUV
Chroma subsampling          : 4:2:0
Bit depth                   : 8 bits
Scan type                   : Progressive
Bits/(Pixel*Frame)          : 0.127
Stream size                 : 431 MiB (86%)
Writing library             : x264 core 148 r2744 b97ae06
Language                    : English
Default                     : Yes
Forced                      : No
Color range                 : Limited
Matrix coefficients         : BT.709

Audio
ID                          : 2
Format                      : AC-3
Format/Info                 : Audio Coding 3
Mode extension              : CM (complete main)
Format settings, Endianness : Big
Codec ID                    : A_AC3
Duration                    : 21mn 35s
Bit rate mode               : Constant
Bit rate                    : 384 Kbps
Channel(s)                  : 6 channels
Channel positions           : Front: L C R, Side: L R, LFE
Sampling rate               : 48.0 KHz
Compression mode            : Lossy
Stream size                 : 59.3 MiB (12%)
Language                    : English
Default                     : Yes
Forced                      : No

Text #1
ID                          : 3
Format                      : UTF-8
Codec ID                    : S_TEXT/UTF8
Codec ID/Info               : UTF-8 Plain Text
Language                    : French
Default                     : Yes
Forced                      : No

Text #2
ID                          : 4
Format                      : UTF-8
Codec ID                    : S_TEXT/UTF8
Codec ID/Info               : UTF-8 Plain Text
Language                    : English
Default                     : No
Forced                      : No

Sources : AVS - RBTeam

Ajouter un commentaire

 
Loading...