Once.Upon.a.Time.S06E13.SUBFRENCH.720p.WEB-DL.DD5.1.x264-ARK01 URL Raccourcie


Once Upon A Time S06E13 VOSTFR 720p





Origine de la série : Américaine
Réalisateur(s) : Adam Horowitz
Acteurs : Jennifer Morrison, Ginnifer Goodwin, Lana Parrilla
Genre : Drame, Fantastique
Note : 4.3
Fiche allociné : Once Upon A Time



De nos jours, dans une bourgade du Maine appelée Storybrooke, les contes de fées existent encore. C'est ce que va découvrir Emma, une jeune femme au passé trouble, embarquée dans un merveilleux et tragique voyage par le fils qu'elle a abandonné 10 ans plus tôt. Elle croisera sur son chemin la méchante Reine, qui n'est autre que l'impitoyable Maire de la ville, Blanche Neige, devenue la douce Soeur Mary Margaret Blanchard, Tracassin, l'effrayant expert en magie noire ou encore Archie, le sympathique Jiminy Cricket local. Avec son arrivée, c'est l'espoir de toute une communauté amnésique qui renaît...



Qualité : WEB-DL 720p
Format : MKV
Langue :
Sous-titre : iTunes
Codec vidéo : x264
Codec audio : AC3 5.1

.:: Release ::.
Once.Upon.a.Time.S06E13.SUBFRENCH.720p.WEB-DL.DD5.1.x264-ARK01


Total du post : 994 Mo



↓↓↓ Once.Upon.a.Time.S06E13.SUBFRENCH.720p.WEB-DL.DD5.1.x264-ARK01 ↓↓↓
 
Seeders 208 Leechers 0 Téléchargements 619
 
Télécharger Dire merci! Signaler
Voir la liste des membres qui vous remercient
↑↑↑ Once.Upon.a.Time.S06E13.SUBFRENCH.720p.WEB-DL.DD5.1.x264-ARK01 ↑↑↑

Informations

Nom Once.Upon.a.Time.S06E13.SUBFRENCH.720p.WEB-DL.DD5.1.x264-ARK01
Torrent Once.Upon.a.Time.S06E13.SUBFRENCH.720p.WEB-DL.DD5.1.x264-ARK01.mkv.torrent
Catégorie Série TV
Taille totale 994.3 MB
Info Hash f67b9be98f7e916f4880a4f42fefe13dcf31c16f
Uploadé par Arkhos01
Uploadé le 2017-03-20 12:15:17 (+00:00)
Visites 804
évaluation 5/5 (16 votes)

Liste des Fichiers

Path Size
Once.Upon.a.Time.S06E13.SUBFRENCH.720p.WEB-DL.DD5.1.x264-ARK01.mkv 994.3 MB

Voir le NFO

General
Complete name               : Once.Upon.a.Time.S06E13.SUBFRENCH.720p.WEB-DL.DD5.1.x264-ARK01.mkv
Format                      : Matroska
Format version              : Version 4 / Version 2
File size                   : 994 MiB
Duration                    : 41mn 19s
Overall bit rate            : 3 364 Kbps
Encoded date                : UTC 2017-03-20 11:46:01
Writing application         : mkvmerge v8.3.0 ('Over the Horizon') 64bit
Writing library             : libebml v1.3.1 + libmatroska v1.4.2

Video
ID                          : 1
Format                      : AVC
Format/Info                 : Advanced Video Codec
Format profile              : [email protected]
Format settings, CABAC      : Yes
Format settings, ReFrames   : 5 frames
Codec ID                    : V_MPEG4/ISO/AVC
Duration                    : 41mn 19s
Bit rate                    : 2 913 Kbps
Width                       : 1 280 pixels
Height                      : 720 pixels
Display aspect ratio        : 16:9
Frame rate mode             : Constant
Frame rate                  : 25.000 fps
Color space                 : YUV
Chroma subsampling          : 4:2:0
Bit depth                   : 8 bits
Scan type                   : Progressive
Bits/(Pixel*Frame)          : 0.126
Stream size                 : 861 MiB (87%)
Writing library             : x264 core 148 r2762 90a61ec
Language                    : English
Default                     : Yes
Forced                      : No
Color range                 : Limited
Matrix coefficients         : BT.709

Audio
ID                          : 2
Format                      : AC-3
Format/Info                 : Audio Coding 3
Mode extension              : CM (complete main)
Format settings, Endianness : Big
Codec ID                    : A_AC3
Duration                    : 41mn 19s
Bit rate mode               : Constant
Bit rate                    : 384 Kbps
Channel(s)                  : 6 channels
Channel positions           : Front: L C R, Side: L R, LFE
Sampling rate               : 48.0 KHz
Compression mode            : Lossy
Stream size                 : 113 MiB (11%)
Language                    : English
Default                     : Yes
Forced                      : No

Sources : Yn1D - iTunes

Ajouter un commentaire

 
Loading...