Once.Upon.a.Time.S06E13.SUBFRENCH.WEB-DL.x264-ARK01 URL Raccourcie


Once Upon A Time S06E13 VOSTFR





Origine de la série : Américaine
Réalisateur(s) : Adam Horowitz
Acteurs : Jennifer Morrison, Ginnifer Goodwin, Lana Parrilla
Genre : Drame, Fantastique
Note : 4.3
Fiche allociné : Once Upon A Time



De nos jours, dans une bourgade du Maine appelée Storybrooke, les contes de fées existent encore. C'est ce que va découvrir Emma, une jeune femme au passé trouble, embarquée dans un merveilleux et tragique voyage par le fils qu'elle a abandonné 10 ans plus tôt. Elle croisera sur son chemin la méchante Reine, qui n'est autre que l'impitoyable Maire de la ville, Blanche Neige, devenue la douce Soeur Mary Margaret Blanchard, Tracassin, l'effrayant expert en magie noire ou encore Archie, le sympathique Jiminy Cricket local. Avec son arrivée, c'est l'espoir de toute une communauté amnésique qui renaît...



Qualité : WEB-DL
Format : Mpeg4
Langue :
Sous-titre : iTunes
Codec vidéo : x264
Codec audio : AAC

.:: Release ::.
Once.Upon.a.Time.S06E13.SUBFRENCH.WEB-DL.x264-ARK01


Total du post : 307 Mo



↓↓↓ Once.Upon.a.Time.S06E13.SUBFRENCH.WEB-DL.x264-ARK01 ↓↓↓
 
Seeders 319 Leechers 1 Téléchargements 1113
 
Télécharger Dire merci! Signaler
Voir la liste des membres qui vous remercient
↑↑↑ Once.Upon.a.Time.S06E13.SUBFRENCH.WEB-DL.x264-ARK01 ↑↑↑

Informations

Nom Once.Upon.a.Time.S06E13.SUBFRENCH.WEB-DL.x264-ARK01
Torrent Once.Upon.a.Time.S06E13.SUBFRENCH.WEB-DL.x264-ARK01.mp4.torrent
Catégorie Série TV
Taille totale 307.43 MB
Info Hash a89a643ece49be60eba3829206c9b3de50580eaa
Uploadé par Arkhos01
Uploadé le 2017-03-20 10:52:22 (+00:00)
Visites 1345
évaluation 4.8/5 (31 votes)

Liste des Fichiers

Path Size
Once.Upon.a.Time.S06E13.SUBFRENCH.WEB-DL.x264-ARK01.mp4 307.43 MB

Voir le NFO

General
Complete name               : Once.Upon.a.Time.S06E13.SUBFRENCH.WEB-DL.x264-ARK01.mp4
Format                      : MPEG-4
Format profile              : Base Media
Codec ID                    : isom
File size                   : 307 MiB
Duration                    : 41mn 19s
Overall bit rate mode       : Variable
Overall bit rate            : 1 040 Kbps
Encoded date                : UTC 2017-03-20 10:48:37
Tagged date                 : UTC 2017-03-20 10:48:37

Video
ID                          : 1
Format                      : AVC
Format/Info                 : Advanced Video Codec
Format profile              : [email protected]
Format settings, CABAC      : Yes
Format settings, ReFrames   : 5 frames
Codec ID                    : avc1
Codec ID/Info               : Advanced Video Coding
Duration                    : 41mn 19s
Bit rate                    : 904 Kbps
Maximum bit rate            : 5 658 Kbps
Width                       : 720 pixels
Height                      : 404 pixels
Display aspect ratio        : 16:9
Frame rate mode             : Constant
Frame rate                  : 25.000 fps
Color space                 : YUV
Chroma subsampling          : 4:2:0
Bit depth                   : 8 bits
Scan type                   : Progressive
Bits/(Pixel*Frame)          : 0.124
Stream size                 : 267 MiB (87%)
Writing library             : x264 core 148 r2762 90a61ec
Encoded date                : UTC 2017-03-20 10:48:37
Tagged date                 : UTC 2017-03-20 10:48:41
Color range                 : Limited
Matrix coefficients         : BT.709

Audio
ID                          : 2
Format                      : AAC
Format/Info                 : Advanced Audio Codec
Format profile              : LC
Codec ID                    : 40
Duration                    : 41mn 19s
Bit rate mode               : Variable
Bit rate                    : 132 Kbps
Maximum bit rate            : 152 Kbps
Channel(s)                  : 2 channels
Channel positions           : Front: L R
Sampling rate               : 48.0 KHz
Compression mode            : Lossy
Stream size                 : 39.0 MiB (13%)
Encoded date                : UTC 2017-03-20 10:29:17
Tagged date                 : UTC 2017-03-20 10:48:41

Sources : Yn1D - iTunes

Ajouter un commentaire

MisterFabian ↑ 87.25 GB ↓ 50.4 GB Ratio: 1,73

Merci du partage. hâte de voir cet épisode

diablo09203 yu mo gui gwai fai di zao ↑ 1.01 TB ↓ 568.86 GB Ratio: 1,82

Thx sir !!

yu mo gui gwai fai di zao !
yu mo gui gwai fai di zao !

L'oncle Chan !

 
Loading...