Plus.Belle.La.Vie.S13E118.3238.WebRip.xvid URL Raccourcie


***Plus Belle La Vie 3238***







Réalisateur : Claire de la Rochefoucault,Benoit D'Aubert
Coproduction : Telfrance Séries,Rendez-Vous Production Séries et France Télévisions
Producteurs : Hubert Besson,François Charlent,Michelle Podroznik
Personnages Crées par : Georges Desmouceaux,Bénédicte Achard,Magaly Richard-Serrano,Olivier Szulzynger
Scénarios : Georges Desmouceaux,Eline Le Fur,Grégoire Jean-Baptiste,Thomas Leroux...
Pays : France
Durée : 24mn 5s
Acteurs : Sylvie Flepp : Mirta Torres,Michel Cordes : Roland Marci,
Cécilia Hornus : Blanche Marci,Serge Dupire : Vincent Chaumette,Rebecca Hampton : Céline Frémont,
Virgile Bayle : Guillaume Leserman,Anne Décis : Luna Torres,Laetitia Milot : Mélanie Rinato,
Laurent Kerusoré : Thomas Marci,Alexandre Fabre : Charles Frémont...

Saison(s) : 13
Episode(s) : 118
Genre : Soap opera, Famille, Drame
Titre Original : Plus Belle La Vie S13 EP118
Date de sortie : 22 Mars 2017






Certains parents au Mistral prennent une bonne claque,
et Luna cauchemarde sur son patrimoine génétique.
Djawad, quant à lui, a peur du chemin emprunté par sa tante.







Hébergeur : T411
Nom de la release : Plus.Belle.La.Vie.S13E118.3238.WebRip.xvid
Pseudo de l'uploader : weihnacht
Qualité : WebRip
Format : MPEG-4 Visual(avi)
Langue : Français
Sous-titre : AUCUN
Découpage : AUCUN
Nombre de fichiers et tailles : 1 x 260 Mo



Total du post: 260 Mo



BONNE ANNEE 2017 AVEC T411

Générée le 20-03-2017 à 09:10









↓↓↓ Plus.Belle.La.Vie.S13E118.3238.WebRip.xvid ↓↓↓
 
Seeders 86 Leechers 0 Téléchargements 527
 
Télécharger Dire merci! Signaler
Voir la liste des membres qui vous remercient
↑↑↑ Plus.Belle.La.Vie.S13E118.3238.WebRip.xvid ↑↑↑

Informations

Nom Plus.Belle.La.Vie.S13E118.3238.WebRip.xvid
Torrent Plus.Belle.La.Vie.S13E118.3238.WebRip.xvid.torrent
Catégorie Série TV
Taille totale 260.15 MB
Info Hash 9f512f5a4f338b1c782d7b7df1ac8d5129e3f42c
Uploadé par weihnacht
Uploadé le 2017-03-20 08:07:49 (+00:00)
Visites 706
évaluation 4.9/5 (34 votes)

Liste des Fichiers

Path Size
Plus.Belle.La.Vie.S13E118.3238.WebRip.xvid/Plus.Belle.La.Vie.S13E118.3238.WebRip.xvid.avi 260.13 MB
Plus.Belle.La.Vie.S13E118.3238.WebRip.xvid/Plus.Belle.La.Vie.S13E118.3238.WebRip.xvid.jpeg 20.14 KB
Plus.Belle.La.Vie.S13E118.3238.WebRip.xvid/Plus.Belle.La.Vie.S13E118.3238.WebRip.xvid.nfo 2.12 KB

Voir le NFO

General
Complete name                            : C:\BitTorrent\Plus.Belle.La.Vie.S13E118.3238.WebRip.xvid\Plus.Belle.La.Vie.S13E118.3238.WebRip.xvid.avi
Format                                   : AVI
Format/Info                              : Audio Video Interleave
File size                                : 260 MiB
Duration                                 : 24 min 5 s
Overall bit rate                         : 1 510 kb/s
Writing application                      : Lavf52.57.1

Video
ID                                       : 0
Format                                   : MPEG-4 Visual
Codec ID                                 : FMP4
Duration                                 : 24 min 5 s
Bit rate                                 : 1 369 kb/s
Width                                    : 720 pixels
Height                                   : 400 pixels
Display aspect ratio                     : 16:9
Frame rate                               : 25.000 FPS
Color space                              : YUV
Chroma subsampling                       : 4:2:0
Scan type                                : Progressive
Compression mode                         : Lossy
Bits/(Pixel*Frame)                       : 0.190
Stream size                              : 236 MiB (91%)

Audio
ID                                       : 1
Format                                   : MPEG Audio
Format version                           : Version 1
Format profile                           : Layer 3
Codec ID                                 : 55
Codec ID/Hint                            : MP3
Duration                                 : 24 min 5 s
Bit rate mode                            : Constant
Bit rate                                 : 128 kb/s
Channel(s)                               : 2 channels
Sampling rate                            : 44.1 kHz
Compression mode                         : Lossy
Stream size                              : 22.1 MiB (8%)
Alignment                                : Aligned on interleaves
Interleave, duration                     : 26  ms (0.65 video frame)
Interleave, preload duration             : 26  ms

Ajouter un commentaire

Alcatel1664 ↑ 173.79 GB ↓ 116.93 GB Ratio: 1,48

Merci Bien L'amie

 
Loading...