Rugby à XIII.Dragons Catalans v. St Helens.French.720p.18 03 2017.Freek911 URL Raccourcie


Dragons Catalans v. St Helens
French Commentary
Mp4 | 720p | AAC







Réalisateur :
Genre : Rugby à XIII
Durée : 2 x 40 mn
Date du match : 18 Mars 2017 @ 18h00




Dragons Catalans v. St Helens

Super League - saison 2017 - J05


Les Dragons retrouveront le stade Gilbert Brutus le samedi 18 Mars à 18h à l’occasion de la réception de Saint-Helens, match pour le compte de la 5ème journée de Super League.






Hébergeur : Freebox Révolution
Date du Up : 20 Mars 2017
Qualité : HDTV 720p
Format : Mp4
Bitrate vidéo : 2500 Kbps
Piste Vidéo : 1280 x 700
piste audio : AAC @ 96 Kbps
Langue :

Nom de la release : Rugby à XIII.Dragons Catalans v. St Helens.French.720p.18 03 2017.Freek911

Total du post: 1.84 Go





Générée le 20-03-2017 à 11:00


↓↓↓ Rugby à XIII.Dragons Catalans v. St Helens.French.720p.18 03 2017.Freek911 ↓↓↓
 
Seeders 3 Leechers 0 Téléchargements 10
 
Télécharger Dire merci! Signaler
Voir la liste des membres qui vous remercient
↑↑↑ Rugby à XIII.Dragons Catalans v. St Helens.French.720p.18 03 2017.Freek911 ↑↑↑

Informations

Nom Rugby à XIII.Dragons Catalans v. St Helens.French.720p.18 03 2017.Freek911
Torrent Rugby à XIII.Dragons Catalans v. St Helens.French.720p.18 03 2017.Freek911.torrent
Catégorie Sport
Taille totale 1.85 GB
Info Hash d204216602f90ea780741f196097cb818c9ca851
Uploadé par Freek911
Uploadé le 2017-03-20 09:59:31 (+00:00)
Visites 120
évaluation 5/5 (3 votes)

Liste des Fichiers

Path Size
Rugby à XIII.Dragons Catalans v. St Helens.French.720p.18 03 2017.Freek911.mp4 1.85 GB

Voir le NFO

General
Complete name                            : Rugby a XIII.Dragons Catalans v. St Helens.French.720p.04 03 2017.Freek911.mp4
Format                                   : MPEG-4
Format profile                           : Base Media / Version 2
Codec ID                                 : mp42 (mp42/isom)
File size                                : 1.85 GiB
Duration                                 : 1h 41mn
Overall bit rate                         : 2 599 Kbps
Encoded date                             : UTC 2017-03-17 22:59:13
Tagged date                              : UTC 2017-03-17 22:59:13
Writing library                          : AVS 

Video
ID                                       : 1
Format                                   : AVC
Format/Info                              : Advanced Video Codec
Format profile                           : [email protected]
Format settings, CABAC                   : Yes
Format settings, ReFrames                : 1 frame
Codec ID                                 : avc1
Codec ID/Info                            : Advanced Video Coding
Duration                                 : 1h 41mn
Bit rate                                 : 2 501 Kbps
Width                                    : 1 280 pixels
Height                                   : 720 pixels
Display aspect ratio                     : 16:9
Frame rate mode                          : Constant
Frame rate                               : 25.000 fps
Color space                              : YUV
Chroma subsampling                       : 4:2:0
Bit depth                                : 8 bits
Scan type                                : Progressive
Bits/(Pixel*Frame)                       : 0.109
Stream size                              : 1.78 GiB (96%)
Language                                 : English
Encoded date                             : UTC 2017-03-17 22:59:13
Tagged date                              : UTC 2017-03-17 22:59:13
Color primaries                          : BT.709
Transfer characteristics                 : BT.709
Matrix coefficients                      : BT.709

Audio
ID                                       : 2
Format                                   : AAC
Format/Info                              : Advanced Audio Codec
Format profile                           : LC
Codec ID                                 : 40
Duration                                 : 1h 41mn
Bit rate mode                            : Constant
Bit rate                                 : 96.0 Kbps
Channel(s)                               : 2 channels
Channel positions                        : Front: L R
Sampling rate                            : 24.0 KHz
Frame rate                               : 23.438 fps (1024 spf)
Compression mode                         : Lossy
Stream size                              : 68.9 MiB (4%)
Language                                 : English
Encoded date                             : UTC 2017-03-17 22:59:13
Tagged date                              : UTC 2017-03-17 22:59:13

Ajouter un commentaire

 
Loading...