[SD] Touche Pas à Mon Poste (20-03-2017) URL Raccourcie



Emission du 20-03-2017



Voir ou revoir les images marquantes de la veille dans la meilleure humeur possible et avec un rythme soutenu, tel est le concept de cette émission. L'émission n'est cependant pas qu'une compilation d'images ressassées par les zappings, puisque Cyril Hanouna et son équipe de chroniqueurs proposent de débattre sur les émissions nouvelles et/ou polémiques, dans les différentes rubriques que l'émission propose. De nombreux happenings, prévus ou totalement improvisés, sont proposés par l'animateur, les chroniqueurs et parfois même les invités.

Les invités y parlent de leur actualité et de la télévision, l'occasion pour eux de relever parfois des défis sur le plateau.




Pays : France
Chaîne : C8
Genre : Divertissement / Talk-Show
Langue : Français
Durée : 01h 31mn 03s


Présentation
Cyril Hanouna

Chroniqueurs
Matthieu Delormeau
Agathe Auproux
Jean-Michel Maire
Thierry Moreau
Gilles Verdez
Isabelle Morini-Bosc
Caroline Ithurbide
Benjamin Castaldi
Jean-Luc Lemoine

Invités
Bertrand Chameroy et Nicolas Dupont-Aignan





Date de l'upload : 21/03/2017
Qualité : 640 x 360p
Images/sec : 25,000
Format : MP4
Codecs video : AVC
Bitrate Video : 1 255 Kbps
Codecs audio : AAC
Bitrate Audio : 128 Kbps
Nombre de fichiers et taille : 1 x 921 Mo


Total du post:
921 Mo


↓↓↓ [SD] Touche Pas à Mon Poste (20-03-2017) ↓↓↓
 
Seeders 15 Leechers 0 Téléchargements 141
 
Télécharger Dire merci! Signaler
Voir la liste des membres qui vous remercient
↑↑↑ [SD] Touche Pas à Mon Poste (20-03-2017) ↑↑↑

Informations

Nom [SD] Touche Pas à Mon Poste (20-03-2017)
Torrent [SD] Touche Pas à Mon Poste (20-03-2017).torrent
Catégorie Emission TV
Taille totale 921.18 MB
Info Hash 62fd3872d03f54c43fd3140493ced8727645a63b
Uploadé par Anonymous
Uploadé le 2017-03-20 23:29:37 (+00:00)
Visites 191
évaluation 4.9/5 (7 votes)

Liste des Fichiers

Path Size
[SD] Touche Pas à Mon Poste (20-03-2017).mp4 921.18 MB

Voir le NFO

 ■General

Complete name                  : [SD] Touche Pas à Mon Poste (20-03-2017).mp4

Format                         : MPEG-4

Format profile                 : Base Media / Version 2

Codec ID                       : mp42

File size                      : 921 MiB

Duration                       : 1h 31mn 03s

Overall bit rate               : 1 415 Kbps



Video

ID                             : 1

Format                         : AVC

Format/Info                    : Advanced Video Codec

Format profile                 : Main@L3

Format settings, CABAC         : Yes

Format settings, ReFrames      : 4 frames

Codec ID                       : avc1

Codec ID/Info                  : Advanced Video Coding

Duration                       : 1h 31mn 03s

Bit rate                       : 1 255 Kbps

Nominal bit rate               : 1 500 Kbps

Maximum bit rate               : 2 280 Kbps

Width                          : 640 pixels

Height                         : 360 pixels

Display aspect ratio           : 16:9

Frame rate mode                : Constant

Frame rate                     : 25.000 fps

Color space                    : YUV

Chroma subsampling             : 4:2:0

Bit depth                      : 8 bits

Scan type                      : Progressive

Bits/(Pixel*Frame)             : 0.218

Stream size                    : 817 MiB (89%)

Title                          : Telestream Inc. Dib Library - ReleaseVantage 2014.59.138974

Writing library                : x264 core 129

Encoding settings              : cabac=1 / ref=3 / deblock=1:0:0 / analyse=0x1:0x111 / me=hex / subme=7 / psy=0 / mixed_ref=1 / me_range=16 / chroma_me=1 / trellis=1 / 8x8dct=0 / cqm=0 / deadzone=21,11 / fast_pskip=1 / chroma_qp_offset=0 / threads=24 / lookahead_threads=4 / sliced_threads=0 / nr=0 / decimate=1 / interlaced=0 / bluray_compat=0 / constrained_intra=0 / bframes=3 / b_pyramid=2 / b_adapt=1 / b_bias=0 / direct=1 / weightb=1 / open_gop=0 / weightp=2 / keyint=250 / keyint_min=25 / scenecut=40 / intra_refresh=0 / rc_lookahead=40 / rc=cbr / mbtree=1 / bitrate=1500 / ratetol=1.0 / qcomp=0.60 / qpmin=0 / qpmax=69 / qpstep=4 / vbv_maxrate=1500 / vbv_bufsize=1500 / nal_hrd=none / ip_ratio=1.00 / aq=1:0.00



Audio

ID                             : 2

Format                         : AAC

Format/Info                    : Advanced Audio Codec

Format profile                 : LC

Codec ID                       : 40

Duration                       : 1h 31mn 03s

Bit rate mode                  : Constant

Bit rate                       : 128 Kbps

Channel(s)                     : 2 channels

Channel positions              : Front: L R

Sampling rate                  : 44.1 KHz

Compression mode               : Lossy

Stream size                    : 83.4 MiB (9%)

Title                          : Telestream Inc. Dib Library - ReleaseVantage 2014.59.138974

Ajouter un commentaire

domc35 ↑ 2.31 TB ↓ 1.96 TB Ratio: 1,18

MAIS C'est Chameroy, merci je pense que je vais aimer

 
Loading...