Taken.2017.S01E02.FRENCH.720p.WEBRip.x264-BRiNK URL Raccourcie


[¯`·._.·[ Taken ]·._.·´¯]







Origine du film : Aucune information ...
Réalisateur : Alexander Cary
Acteur(s) : Clive Standen, Jennifer Beals, Gaius Charles, Jose Pablo Cantillo, Monique Gabriela Curnen, James Landry Hébert,
Genre : Action & Aventure Crime
Durée : 42m
Année de production : 2017




Après une tragédie personnelle, Bryan Mills est engagé par la CIA pour mener une opération mortelle. Un travail qui va lui apprendre un ensemble de compétences très particulier et très dangereux.



Hébergeur : SeedBox
Qualité : WEB-DL 720p
Format : MKV
Codec Vidéo : x264
Codec Audio : AC3
Langues : Francais
Sous-titre : Aucun
Découper avec : Aucun
Nombre de fichiers et tailles : 1 x 709,02 Mo
Taille totale : 709,02 Mo






Les UpLoadeurs travaillent pour vous et vous assurent la diversité des fichiers sur t411.

Si vous êtes satisfait de l'Upload, soyez gentil de dire merci et de cliquer sur "Contenu Conforme" afin que le torrent devienne

"Torrent conforme communauté".

Merci d'avance.


Total du post: 709,02 Mo



Générée le 20-03-2017 à 15:26:13


↓↓↓ Taken.2017.S01E02.FRENCH.720p.WEBRip.x264-BRiNK ↓↓↓
 
Seeders 127 Leechers 0 Téléchargements 398
 
Télécharger Dire merci! Signaler
Voir la liste des membres qui vous remercient
↑↑↑ Taken.2017.S01E02.FRENCH.720p.WEBRip.x264-BRiNK ↑↑↑

Informations

Nom Taken.2017.S01E02.FRENCH.720p.WEBRip.x264-BRiNK
Torrent Taken.2017.S01E02.FRENCH.720p.WEBRip.x264-BRiNK.torrent
Catégorie Série TV
Taille totale 709.02 MB
Info Hash 853e5a666e152a35c870bc2f649b9fc863d1c45d
Uploadé par Anonymous
Uploadé le 2017-03-20 14:27:35 (+00:00)
Visites 596
évaluation 4.7/5 (20 votes)

Liste des Fichiers

Path Size
Taken.2017.S01E02.FRENCH.720p.WEBRip.x264-BRiNK/Taken.2017.S01E02.FRENCH.720p.WEBRip.x264-BRiNK.mkv 709.02 MB
Taken.2017.S01E02.FRENCH.720p.WEBRip.x264-BRiNK/Taken.2017.S01E02.FRENCH.720p.WEBRip.x264-BRiNK.nfo 3.9 KB

Voir le NFO

General
Unique ID                                : 213886087350907921656285478609535169477 (0xA0E8F647B5866622A7F53B39A130F3C5)
Complete name                            : Taken.2017.S01E02.FRENCH.720p.WEBRip.x264-BRiNK.mkv
Format                                   : Matroska
Format version                           : Version 4 / Version 2
File size                                : 709 MiB
Duration                                 : 40mn 42s
Overall bit rate                         : 2 435 Kbps
Encoded date                             : UTC 2017-03-18 14:19:17
Writing application                      : mkvmerge v9.9.0 ('Pick Up') 64bit
Writing library                          : libebml v1.3.4 + libmatroska v1.4.5
DURATION                                 : 00:40:42.368000000
NUMBER_OF_FRAMES                         : 76324
NUMBER_OF_BYTES                          : 58616832
_STATISTICS_WRITING_APP                  : mkvmerge v9.9.0 ('Pick Up') 64bit
_STATISTICS_WRITING_DATE_UTC             : 2017-03-18 14:19:17
_STATISTICS_TAGS                         : BPS DURATION NUMBER_OF_FRAMES NUMBER_OF_BYTES

Video
ID                                       : 1
Format                                   : AVC
Format/Info                              : Advanced Video Codec
Format profile                           : [email protected]
Format settings, CABAC                   : Yes
Format settings, ReFrames                : 5 frames
Codec ID                                 : V_MPEG4/ISO/AVC
Duration                                 : 40mn 42s
Bit rate                                 : 2 195 Kbps
Width                                    : 1 280 pixels
Height                                   : 720 pixels
Display aspect ratio                     : 16:9
Frame rate mode                          : Constant
Frame rate                               : 23.976 fps
Color space                              : YUV
Chroma subsampling                       : 4:2:0
Bit depth                                : 8 bits
Scan type                                : Progressive
Bits/(Pixel*Frame)                       : 0.099
Stream size                              : 639 MiB (90%)
Writing library                          : x264 core 148 r2762 90a61ec
Encoding settings                        : cabac=1 / ref=5 / deblock=1:-3:-3 / analyse=0x3:0x113 / me=hex / subme=8 / psy=1 / psy_rd=1.00:0.00 / mixed_ref=1 / me_range=16 / chroma_me=1 / trellis=2 / 8x8dct=1 / cqm=0 / deadzone=21,11 / fast_pskip=0 / chroma_qp_offset=-2 / threads=18 / lookahead_threads=3 / sliced_threads=0 / nr=0 / decimate=1 / interlaced=0 / bluray_compat=0 / constrained_intra=0 / bframes=3 / b_pyramid=2 / b_adapt=1 / b_bias=0 / direct=3 / weightb=1 / open_gop=0 / weightp=2 / keyint=250 / keyint_min=23 / scenecut=40 / intra_refresh=0 / rc_lookahead=50 / rc=crf / mbtree=1 / crf=18.0 / qcomp=0.60 / qpmin=0 / qpmax=69 / qpstep=4 / ip_ratio=1.40 / aq=3:0.80
Default                                  : Yes
Forced                                   : No

Audio
ID                                       : 2
Format                                   : AC-3
Format/Info                              : Audio Coding 3
Mode extension                           : CM (complete main)
Format settings, Endianness              : Big
Codec ID                                 : A_AC3
Duration                                 : 40mn 42s
Bit rate mode                            : Constant
Bit rate                                 : 192 Kbps
Channel(s)                               : 2 channels
Channel positions                        : Front: L R
Sampling rate                            : 48.0 KHz
Bit depth                                : 16 bits
Compression mode                         : Lossy
Stream size                              : 55.9 MiB (8%)
Title                                    : French
Language                                 : French
Default                                  : Yes
Forced                                   : No


Ajouter un commentaire

viamel craw ↑ 48.2 GB ↓ 40.99 GB Ratio: 1,17

merci du boulot continue

TruckerBoys ↑ 39.3 TB ↓ 4.37 TB Ratio: 8,99

Merci pour ton travail l'ami j'ai une petite question est ce que tu vas poursuivre la série en 1080 comme pour la première épisode ou juste en 720 pour la suite de cette série???

 
Loading...