The.Simpsons.S28E16.FASTSUB.VOSTFR.720p.HDTV.x264-FDS URL Raccourcie


Les Simpson S28E16 VOSTFR 720p HDTV
22 for 30
Diffusé le 12/03/17





Origine de la serie : : Américaine
Titre original : The Simpsons
Statut : En production
Réalisateur : Matt Groening
(1989)

Acteurs : Harry Shearer, Hank Azaria, Nancy Cartwright
Genre : Comédie, Animation
Durée : 22 Min(s)
Date de diffusion : : 17/12/1989 -




Les Simpson, famille américaine moyenne, vivent à Springfield. Homer, le père, a deux passions : regarder la télé et boire des bières. Mais son quotidien est rarement reposant, entre son fils Bart qui fait toutes les bêtises possibles, sa fille Lisa qui est une surdouée, ou encore sa femme Marge qui ne supporte pas de le voir se soûler à longueur de journée.





Qualité : HDTV 720p
Format : MKV
Codec Vidéo : x264
Codec Audio : AC3
Langues : Anglais US
Sous-titre : Francais
Découper avec : Aucun
Nombre de fichiers et tailles : 1 x 619 Mo
Taille totale : 619,00 Mo


↓↓↓ The.Simpsons.S28E16.FASTSUB.VOSTFR.720p.HDTV.x264-FDS ↓↓↓
 
Seeders 56 Leechers 0 Téléchargements 211
 
Télécharger Dire merci! Signaler
Voir la liste des membres qui vous remercient
↑↑↑ The.Simpsons.S28E16.FASTSUB.VOSTFR.720p.HDTV.x264-FDS ↑↑↑

Informations

Nom The.Simpsons.S28E16.FASTSUB.VOSTFR.720p.HDTV.x264-FDS
Torrent The.Simpsons.S28E16.FASTSUB.VOSTFR.720p.HDTV.x264-FDS.mkv.torrent
Catégorie Animation Série
Taille totale 619.69 MB
Info Hash a1571f47813c0729aef3dc3abdb0c79eeeb7cdf4
Uploadé par alvleboss
Uploadé le 2017-03-20 14:49:40 (+00:00)
Visites 589
évaluation 5/5 (8 votes)

Liste des Fichiers

Path Size
The.Simpsons.S28E16.FASTSUB.VOSTFR.720p.HDTV.x264-FDS.mkv 619.69 MB

Voir le NFO

General
Unique ID                   : 221109435714029570354309879556592932944 (0xA65820D9C3B1462C8555B2B6D3689850)
Complete name               : The.Simpsons.S28E16.FASTSUB.VOSTFR.720p.HDTV.x264-FDS.mkv
Format                      : Matroska
Format version              : Version 4 / Version 2
File size                   : 620 MiB
Duration                    : 21 min 29 s
Overall bit rate            : 4 031 kb/s
Encoded date                : UTC 2017-03-16 16:34:35
Writing application         : mkvmerge v9.9.0 ('Pick Up') 64bit
Writing library             : libebml v1.3.4 + libmatroska v1.4.5

Video
ID                          : 1
Format                      : AVC
Format/Info                 : Advanced Video Codec
Format profile              : [email protected]
Format settings, CABAC      : Yes
Format settings, ReFrames   : 5 frames
Codec ID                    : V_MPEG4/ISO/AVC
Duration                    : 21 min 29 s
Bit rate                    : 3 581 kb/s
Width                       : 1 280 pixels
Height                      : 720 pixels
Display aspect ratio        : 16:9
Frame rate mode             : Constant
Frame rate                  : 23.976 (24000/1001) FPS
Color space                 : YUV
Chroma subsampling          : 4:2:0
Bit depth                   : 8 bits
Scan type                   : Progressive
Bits/(Pixel*Frame)          : 0.162
Stream size                 : 551 MiB (89%)
Writing library             : x264 core 148 r2744 b97ae06
Encoding settings           : cabac=1 / ref=5 / deblock=1:0:0 / analyse=0x3:0x113 / me=hex / subme=8 / psy=1 / psy_rd=1.00:0.00 / mixed_ref=1 / me_range=16 / chroma_me=1 / trellis=2 / 8x8dct=1 / cqm=0 / deadzone=21,11 / fast_pskip=1 / chroma_qp_offset=-2 / threads=22 / lookahead_threads=3 / sliced_threads=0 / nr=0 / decimate=1 / interlaced=0 / bluray_compat=0 / constrained_intra=0 / bframes=3 / b_pyramid=2 / b_adapt=1 / b_bias=0 / direct=3 / weightb=1 / open_gop=0 / weightp=2 / keyint=250 / keyint_min=23 / scenecut=40 / intra_refresh=0 / rc_lookahead=50 / rc=crf / mbtree=1 / crf=18.0 / qcomp=0.60 / qpmin=0 / qpmax=69 / qpstep=4 / ip_ratio=1.40 / aq=1:1.00
Language                    : English
Default                     : Yes
Forced                      : No
Color range                 : Limited
Matrix coefficients         : BT.709

Audio
ID                          : 2
Format                      : AC-3
Format/Info                 : Audio Coding 3
Format settings, Endianness : Big
Codec ID                    : A_AC3
Duration                    : 21 min 29 s
Bit rate mode               : Constant
Bit rate                    : 448 kb/s
Channel(s)                  : 6 channels
Channel positions           : Front: L C R, Side: L R, LFE
Sampling rate               : 48.0 kHz
Frame rate                  : 31.250 FPS (1536 spf)
Bit depth                   : 16 bits
Compression mode            : Lossy
Stream size                 : 68.9 MiB (11%)
Language                    : English
Service kind                : Complete Main
Default                     : Yes
Forced                      : No

Text
ID                          : 3
Format                      : UTF-8
Codec ID                    : S_TEXT/UTF8
Codec ID/Info               : UTF-8 Plain Text
Duration                    : 20 min 36 s
Bit rate                    : 115 b/s
Count of elements           : 447
Stream size                 : 17.4 KiB (0%)
Language                    : French
Default                     : Yes
Forced                      : No

Ajouter un commentaire

 
Loading...