Theatre - Le jour du froment _ Alexandre Astier URL Raccourcie


(¯`·._.·[ Le jour du froment ]·._.·´¯







Auteur : Alexandre Astier
Mise en scène : Jean-Christophe Hembert
Acteurs : Alexandre Astier, Jean-Jacques Chep, Virginie Mouchtouris, Aurélien Portehaut, Thibault Roux, Lan Truong, Loïc Varraut

Genre : Pièce de théâtre
Durée : 1h24
Date de sortie : 2002




Un attentat au gaz s'est déroulé dans le métro et le commissariat le plus proche est débordé : le capitaine, dépressif, anorexique et mal secondé, ne parvient pas à faire face à l'afflux de plaignants ..... Il faut dire qu'il est très mal entouré, entre sa femme retrouvée après dix mois de divorce, son abruti de lieutenant, son commissaire gueulard et vieillissant, un proxénète trafiquant et un jeune stagiaire plus doué pour les crêpes que pour les enquêtes de police.



Qualité : TVrip
Format : XviD
Langue : Francais


Taille du post: 952,00 Mo



↓↓↓ Theatre - Le jour du froment _ Alexandre Astier ↓↓↓
 
Seeders 23 Leechers 0 Téléchargements 3750
 
Télécharger Dire merci! Signaler
Voir la liste des membres qui vous remercient
↑↑↑ Theatre - Le jour du froment _ Alexandre Astier ↑↑↑

Informations

Nom Theatre - Le jour du froment _ Alexandre Astier
Torrent Le jour du froment.avi.torrent
Catégorie Spectacle
Taille totale 952.18 MB
Info Hash 6ed410091c7a7eb90b15449ba163215610702258
Uploadé par chrisos68
Uploadé le 2014-05-20 17:52:58 (+00:00)
Visites 4595
évaluation 4.8/5 (72 votes)

Liste des Fichiers

Path Size
Le jour du froment.avi 952.18 MB

Voir le NFO

General
Complete name                            : Le jour du froment.avi
Format                                   : AVI
Format/Info                              : Audio Video Interleave
File size                                : 952 MiB
Duration                                 : 1h 24mn
Overall bit rate                         : 1 570 Kbps
Writing application                      : VirtualDubMod 1.5.10.2 (build 2540/release)
Writing library                          : VirtualDub build 32839/release

Video
ID                                       : 0
Format                                   : MPEG-4 Visual
Format profile                           : Advanced [email protected]
Format settings, BVOP                    : 2
Format settings, QPel                    : No
Format settings, GMC                     : No warppoints
Format settings, Matrix                  : Default (H.263)
Muxing mode                              : Packed bitstream
Codec ID                                 : XVID
Codec ID/Hint                            : XviD
Duration                                 : 1h 24mn
Bit rate                                 : 1 399 Kbps
Width                                    : 768 pixels
Height                                   : 432 pixels
Display aspect ratio                     : 16:9
Frame rate                               : 30.000 fps
Color space                              : YUV
Chroma subsampling                       : 4:2:0
Bit depth                                : 8 bits
Scan type                                : Progressive
Compression mode                         : Lossy
Bits/(Pixel*Frame)                       : 0.141
Stream size                              : 848 MiB (89%)
Writing library                          : XviD 65

Audio
ID                                       : 1
Format                                   : MPEG Audio
Format version                           : Version 1
Format profile                           : Layer 3
Mode                                     : Joint stereo
Codec ID                                 : 55
Codec ID/Hint                            : MP3
Duration                                 : 1h 24mn
Bit rate mode                            : Constant
Bit rate                                 : 160 Kbps
Channel(s)                               : 2 channels
Sampling rate                            : 44.1 KHz
Compression mode                         : Lossy
Stream size                              : 96.9 MiB (10%)
Alignment                                : Split accross interleaves
Interleave, duration                     : 33 ms (1.00 video frame)
Interleave, preload duration             : 500 ms

Ajouter un commentaire

carabosse2929 ↑ 832.5 GB ↓ 147.84 GB Ratio: 5,63

Merci ! J'avais vraiment envie de voir cette pièce. Ravie de l'avoir trouvée grâce à toi!

Takarasan ↑ 8.51 TB ↓ 1.51 TB Ratio: 5,63

C'est pas si dégueulasse que ça.
La pièce est sympa, ça casse pas trois pattes à un chocobo mais on passe un bon moment.
Je ne regrette vraiment pas mon DL.

Merci.

Fansub Anime old school :

Zefklop75 ↑ 1.76 TB ↓ 1.5 TB Ratio: 1,17

Grâce aux commentaires, je suis prévenu et... je prends quand même! Une pièce avec Astier, ça fait trop plaisir. Merci pour cet heureux partage!!

chrisos68 ↑ 6.76 TB ↓ 616.83 GB Ratio: 11,22

Désolé j'ai récupéré cette pièce telle quelle sur la mule

dandynette ↑ 3.26 TB ↓ 1015.19 GB Ratio: 3,28

bonjour!
merci pour ce partage mais le son est tres mauvais!!!!
vous pouvez faire quelquechose????
d'avance merci

jeannotpopo ↑ 118.13 GB ↓ 129.97 GB Ratio: 0,90

excellent merci beaucoup!

ichtus02 ↑ 1.86 TB ↓ 268.63 GB Ratio: 7,07

Super! Merci beaucoup!

phebuscocker ↑ 147.06 GB ↓ 44.3 GB Ratio: 3,31

Merci pour cette pièce ! La qualité est bonne (pour du tvrip) il ne faut pas se plaindre : certaines pièces ne sont trouvable qu'en vhsrip de très mauvaises qualités ce n'est pas le cas ici.

Konyrobey ↑ 1.41 TB ↓ 517.72 GB Ratio: 2,78


Qualité moyenne, normale tv rip !
Astier à avoir sans sa collection si inconditionnel....


pensez au frere Astier avec la série Hero Corp , un must to have

ronaldo1970 ↑ 571.8 GB ↓ 517.37 GB Ratio: 1,10

Bof. Qualité moyenne et surtout pièce pas terrible. Mais merci

billyidol76 le meilleur dans le pire ↑ 937.02 GB ↓ 405.2 GB Ratio: 2,31

merci beaucoup pour ce partage, je suis curieux de voir, j adore mr astier (en solo) et la bande de kamelott

c est dans le pire que je suis le meilleur

babastv Credendo Vides ↑ 11.53 TB ↓ 4.32 TB Ratio: 2,66

Un grand merci

Je pensais ne jamais pouvoir le regarder

A.A. the best

Tous mes Uploads

batman63000 Why so funny ? ↑ 218.03 GB ↓ 150.23 GB Ratio: 1,45

ça déchire grâve

Si vous aimez la BD Franco-belge, la BD érotique, Les Comics, Les Historietas les doujinshis, les Mangas... venez visitez mon Blog : Temps π http://temps.tt.over-blog.com/

belmondsylvain

YES!YES! j'adore cet auteur,acteur, musicien, réalisateur !!!! 10.000 mercis pour ce partage !! excellente soirée en perspective !!

chrisos68 ↑ 6.76 TB ↓ 616.83 GB Ratio: 11,22

Première pièce d'Alexandre Astier avec plusieurs acteurs qui jouent dans Kaamelott : Aurélien Portehaut (Gauvain), Thibault Roux (Le garde du corps psychopathe) et Lan Truong (Attila) avec la mise en scène de Jean-Christophe Hembert (Caradoc)

Dernière édition par chrisos68 le 2014-05-21 00:32:24

 
Loading...