Un 32 août sur terre (Denis Villeneuve 1998) URL Raccourcie


Un 32 août sur terre

de Denis Villeneuve

85mn 1998






Après un accident de voiture qui la laisse indemne mais complètement bouleversée, Simone Prévost remet toute sa vie en question. Elle quitte son emploi, annule un voyage qu'elle devait faire en Italie et part à la recherche de Philippe, son meilleur ami à qui elle demande de lui faire un enfant. Ce dernier accepte à la condition que l'enfant soit conçu dans le désert. Ils partiront donc pour le désert de Salt Lake City.







Avec:
Paule Baillargeon : Docteur
Emmanuel Bilodeau : meilleur ami de Philippe
Pascale Bussières : Simone Prévost
Joanne Côté : Monica
Frédéric Desager : Stéphane
Venelina Ghiaourov : Nurse
Richard S. Hamilton : Taxi driver
Marc Jeanty : Janvier
Alexis Martin : Philippe
Evelyne Rompré : Juliette

Codec vidéo : Xvid
Codec audio : AC3

Retrouvez mes autres uploads ici!

↓↓↓ Un 32 août sur terre (Denis Villeneuve 1998) ↓↓↓
 
Seeders 17 Leechers 0 Téléchargements 69
 
Télécharger Dire merci! Signaler
Voir la liste des membres qui vous remercient
↑↑↑ Un 32 août sur terre (Denis Villeneuve 1998) ↑↑↑

Informations

Nom Un 32 août sur terre (Denis Villeneuve 1998)
Torrent Un 32 aout sur terre (Denis Villeneuve 1998).avi.torrent
Catégorie Film
Taille totale 1.37 GB
Info Hash bb3b269decd526ec8de70dc782844d575d36daad
Uploadé par qioell
Uploadé le 2017-03-20 08:17:12 (+00:00)
Visites 129
évaluation 5/5 (4 votes)

Liste des Fichiers

Path Size
Un 32 aout sur terre (Denis Villeneuve 1998).avi 1.37 GB

Voir le NFO

General
Complete name                            : E:\Mes videos\Denis Villeneuve\Un 32 aout sur terre (Denis Villeneuve 1998).avi
Format                                   : AVI
Format/Info                              : Audio Video Interleave
File size                                : 1.37 GiB
Duration                                 : 1 h 25 min
Overall bit rate                         : 2 301 kb/s
Writing application                      : VirtualDubMod 1.5.10.3 | www.virtualdub-fr.org || (build 2550/release)
Writing library                          : VirtualDubMod build 2550/release

Video
ID                                       : 0
Format                                   : MPEG-4 Visual
Format profile                           : Advanced [email protected]
Format settings, BVOP                    : 1
Format settings, QPel                    : No
Format settings, GMC                     : No warppoints
Format settings, Matrix                  : Default (MPEG)
Codec ID                                 : XVID
Codec ID/Hint                            : XviD
Duration                                 : 1 h 25 min
Bit rate                                 : 2 036 kb/s
Width                                    : 720 pixels
Height                                   : 304 pixels
Display aspect ratio                     : 2.35:1
Frame rate                               : 25.000 FPS
Color space                              : YUV
Chroma subsampling                       : 4:2:0
Bit depth                                : 8 bits
Scan type                                : Progressive
Compression mode                         : Lossy
Bits/(Pixel*Frame)                       : 0.372
Stream size                              : 1.21 GiB (88%)
Writing library                          : XviD 1.2.1 (UTC 2008-12-04)

Audio
ID                                       : 1
Format                                   : AC-3
Format/Info                              : Audio Coding 3
Mode extension                           : CM (complete main)
Format settings, Endianness              : Big
Codec ID                                 : 2000
Duration                                 : 1 h 25 min
Bit rate mode                            : Constant
Bit rate                                 : 256 kb/s
Channel(s)                               : 2 channels
Channel positions                        : Front: L R
Sampling rate                            : 48.0 kHz
Frame rate                               : 31.250 FPS (1536 spf)
Bit depth                                : 16 bits
Compression mode                         : Lossy
Stream size                              : 156 MiB (11%)
Alignment                                : Split accross interleaves
Interleave, duration                     : 40  ms (1.00 video frame)
Interleave, preload duration             : 500  ms

Ajouter un commentaire

 
Loading...