Wawrinka.vs.Federer.2017.ATP.Indian.Wells.Final.TennisTV.Live.EN.HDTV.720p.AC3.x264-LRN URL Raccourcie


W a w r i n k a - vs. - F e d e r e r


A T P * M a s t e r s 1000 * 2017








Genre : Sport event, Tennis

Durée : 1h58'22"

Date de sortie : 19 mars 2017



Stan Wawrinka contre Roger Federer, épisode 23, en finale du Masters 1000 d'Indian Wells.
Ce choc 100% suisse est devenu au fil du temps un classique du circuit. Le bilan en faveur du Bâlois est sans appel.
Federer mène ainsi largement au score dans leur face-à-face: 19 victoires pour 3 seulement pour le Vaudois
(les trois sur terre battue). Federer a notamment remporté les deux rencontres les ayant opposés à Indian Wells
(en quart de finale 2011 et en 8es en 2013) et n'a encore jamais perdu en quinze rencontres
devant le Champion de l'US Open sur une surface rapide…

Entre l’élève et le maitre, il n’y a longtemps pas eu de match.
Si les deux hommes ne sont pas des amis intimes, ils se respectent et se connaissent par cœur.
Ils ont partagé beaucoup de séances d’entraînement, un préparateur physique (Pierre Paganini),
des campagnes (médaille d’or en double aux Jeux olympiques de Pékin, vainqueurs de la Coupe Davis 2014).
Avec le temps, Wawrinka, est devenu également un concurrent sérieux du Maitre.




Hébergeur : Fibre Optique
Qualité : HDTV 720p
Format : MKV

Langue : Anglais
Sous-titres : Aucuns

Version : PAL
Date du Up : 20 mars 2017
Découper avec : Aucun
Ecran : 16:9

Bitrate Audio : AC3 à 384 Kbps
2 canaux

Bitrate Video : H264 à 6 000 Kbps


..:: Release ::..

Wawrinka.vs.Federer.2017.ATP.Indian.Wells.Final.TennisTV.Live.EN.HDTV.720p.AC3.x264-LRN

Total du post : 5.28 GO







↓↓↓ Wawrinka.vs.Federer.2017.ATP.Indian.Wells.Final.TennisTV.Live.EN.HDTV.720p.AC3.x264-LRN ↓↓↓
 
Seeders 13 Leechers 0 Téléchargements 60
 
Télécharger Dire merci! Signaler
Voir la liste des membres qui vous remercient
↑↑↑ Wawrinka.vs.Federer.2017.ATP.Indian.Wells.Final.TennisTV.Live.EN.HDTV.720p.AC3.x264-LRN ↑↑↑

Informations

Nom Wawrinka.vs.Federer.2017.ATP.Indian.Wells.Final.TennisTV.Live.EN.HDTV.720p.AC3.x264-LRN
Torrent Wawrinka.vs.Federer.2017.ATP.Indian.Wells.Final.TennisTV.Live.EN.HDTV.720p.AC3.x264-LRN.torrent
Catégorie Sport
Taille totale 5.28 GB
Info Hash c754af607e42a595f706364b966a9d2c3cf79713
Uploadé par petrica67
Uploadé le 2017-03-20 18:19:45 (+00:00)
Visites 189
évaluation 3.5/5 (2 votes)

Liste des Fichiers

Path Size
Wawrinka.vs.Federer.2017.ATP.Indian.Wells.Final.TennisTV.Live.EN.HDTV.720p.AC3.x264-LRN/BNP_Parisbas_ATP_Masters_2017.jpeg 135.22 KB
Wawrinka.vs.Federer.2017.ATP.Indian.Wells.Final.TennisTV.Live.EN.HDTV.720p.AC3.x264-LRN/Roger_Federer_BNP_Paribas_Masters.jpg 92.47 KB
Wawrinka.vs.Federer.2017.ATP.Indian.Wells.Final.TennisTV.Live.EN.HDTV.720p.AC3.x264-LRN/Wawrinka.vs.Federer.2017.ATP.Indian.Wells.Final.TennisTV.Live.HDTV.720p.AC3.x264-LRN.mkv 5.28 GB
Wawrinka.vs.Federer.2017.ATP.Indian.Wells.Final.TennisTV.Live.EN.HDTV.720p.AC3.x264-LRN/Wawrinka.vs.Federer.2017.ATP.Indian.Wells.Final.TennisTV.Live.HDTV.720p.AC3.x264-LRN.nfo 2.77 KB

Voir le NFO

General
Unique ID                      : 236141913215912549001208906752690343090 (0xB1A74736B8D67191865899046DCDCCB2)
Complete name                  : R:\Wawrinka.vs.Federer.2017.ATP.Indian.Wells.Final.Tennis.Live.HDTV.720p.AC3.x264-LRN.mkv
Format                         : Matroska
Format version                 : Version 4 / Version 2
File size                      : 5.28 GiB
Duration                       : 1h 58mn
Overall bit rate mode          : Constant
Overall bit rate               : 6 381 Kbps
Encoded date                   : UTC 2017-03-20 16:53:53
Writing application            : mkvmerge v7.3.0 ('Nouages') 64bit built on Oct 22 2014 18:53:34
Writing library                : libebml v1.3.0 + libmatroska v1.4.1
DURATION                       : 01:58:21.984000000
NUMBER_OF_FRAMES               : 221937
NUMBER_OF_BYTES                : 340895232
_STATISTICS_WRITING_APP        : mkvmerge v7.3.0 ('Nouages') 64bit built on Oct 22 2014 18:53:34
_STATISTICS_WRITING_DATE_UTC   : 2017-03-20 16:53:53
_STATISTICS_TAGS               : BPS DURATION NUMBER_OF_FRAMES NUMBER_OF_BYTES

Video
ID                             : 1
Format                         : AVC
Format/Info                    : Advanced Video Codec
Format profile                 : [email protected]
Format settings, CABAC         : Yes
Format settings, ReFrames      : 4 frames
Codec ID                       : V_MPEG4/ISO/AVC
Duration                       : 1h 58mn
Bit rate mode                  : Constant
Bit rate                       : 6 000 Kbps
Width                          : 1 920 pixels
Height                         : 1 080 pixels
Display aspect ratio           : 16:9
Frame rate mode                : Constant
Frame rate                     : 25.000 fps
Color space                    : YUV
Chroma subsampling             : 4:2:0
Bit depth                      : 8 bits
Scan type                      : Progressive
Bits/(Pixel*Frame)             : 0.116
Stream size                    : 4.85 GiB (92%)
Default                        : Yes
Forced                         : No

Audio
ID                             : 2
Format                         : AC-3
Format/Info                    : Audio Coding 3
Mode extension                 : CM (complete main)
Format settings, Endianness    : Big
Codec ID                       : A_AC3
Duration                       : 1h 58mn
Bit rate mode                  : Constant
Bit rate                       : 384 Kbps
Channel(s)                     : 2 channels
Channel positions              : Front: L R
Sampling rate                  : 48.0 KHz
Bit depth                      : 16 bits
Compression mode               : Lossy
Stream size                    : 325 MiB (6%)
Default                        : Yes
Forced                         : No

Ajouter un commentaire

martinlarous ↑ 9.15 TB ↓ 4.02 TB Ratio: 2,27

merci pour encore une belle démonstration du maestro(il va tout gagné cette année !) face à son compatriote stan the man ! très bonne qualité

martinlarous ↑ 9.15 TB ↓ 4.02 TB Ratio: 2,27

merci pour encore une belle démonstration du maestro(il va tout gagné cette année !) face à son compatriote stan the man ! très bonne qualité

Yuko15 ↑ 1.1 TB ↓ 299.29 GB Ratio: 3,75

Merci pour le upload. Super job.
La qualité est top. Les commentaires sont en anglais et donc moins lourdingues que ceux en français.
C'est d'autant plus apprécié que c'est rare d'avoir des matchs autres que les grands chelems.

 
Loading...